Доктор Стрэндж

Лицензия

Добыча

Дубляж

Дом дракона

1 сезон

Тор

Дубляж

В эфире

Дубляж

Там, где раки поют

MVO

Властелин колец

1 сезон

GLOBAL

pack

Рекомендуем

30

Пиратка

ВАЖНО

ВАЖНО

Ghostwire

Пиратка

jed

RePack

nioh2

RePack

RDR2

RePack

NEED FOR SPEED™ PAYBACK

RePack

скачать торрент

Кинопоиск HD

Острые козырьки 6 сезон

6 сезон

FAR CRY 6

RePack

скачать торрент

Лицензия

скачать торрент

MVO

1

1 сезон

скачать торрент

1 сезон

скачать торрент

Лицензия

  

Прибытие / Arrival (Дени Вильнёв) [2016, Фантастика, триллер, драма, детектив, Blu-Ray Remux 1080p] [Дубляж] [Лицензия / iTunes] + [MVO] + [AVO] + [Sub] (Rus, Eng)

Прибытие через торрент pb.wtf

Размер: 27.5 GB | Добавлен: 5 лет 9 мес. назад | Торрент скачан:325 раз
Смотреть онлайн | Скачать   

04-02-2017 07:35 Прибытие Скачать торрент  

Прибытие / Arrival
Год выпуска: 2016
Жанр: Фантастика, триллер, драма, детектив
Выпущено: США, 21 Laps Entertainment, FilmNation Entertainment, Lava Bear Films
Продолжительность: 01:56:22
Перевод: Дублированный [Лицензия / iTunes]
Перевод: Любительский (многоголосый) Paradox & OMSKBIRD
Перевод: Авторский (одноголосый) [А. Матвеев]
Субтитры: русские, английские

Режиссер: Дени Вильнёв

В ролях: Эми Адамс, Джереми Реннер, Майкл Стулбарг, Форест Уитакер, Сангита Патель, Марк О’Брайэн, Эбигейл Пнёвски, Ци Ма, Натали Тибо, Рут Чианг

Описание: Неожиданное появление неопознанных летающих объектов в разных точках планеты повергает мир в трепет. Намерения пришельцев не ясны — вооруженные силы всего мира приведены в полную боевую готовность, а лучшие умы человечества пытаются понять, как разговаривать с непрошенными гостями. Правительство обращается за помощью к лингвисту Луизе Бэнкс и физику Яну Доннели, чтобы предотвратить глобальную катастрофу и найти общий язык с пришельцами. Отныне судьба человечества находится в их руках.



Качество: Blu-Ray Remux [1080p]
Формат: MKV
Видео: MPEG-4 AVC, 27.3 Mбит/с, 1920x1080, 23.976 кадр/с
Аудио: 48.0 KHz, AC3, 6 ch, 384 Kbps [Дубляж]
Аудио: 48.0 KHz, AC3, 6 ch, 384 Kbps [MVO]
Аудио: 48.0 KHz, DTS, 6 ch, 1509 Kbps [AVO]
Аудио: 48.0 KHz, DTS, 8 ch, 4207 Kbps [ENG]
General
Unique ID : 196670098893144747661476623960784326942 (0x93F54883E25000A2B6AAD76FBC11511E)
Complete name : F:\Video\Arrival.2016.DD.MVO.AVO.BDREMUX.1080p.ExKinoRay.mkv
Format : Matroska
Format version : Version 4 / Version 2
File size : 27.5 GiB
Duration : 1 h 56 min
Overall bit rate mode : Variable
Overall bit rate : 33.8 Mb/s
Encoded date : UTC 2017-02-04 02:16:46
Writing application : mkvmerge v8.3.0 ('Over the Horizon') 64bit
Writing library : libebml v1.3.1 + libmatroska v1.4.2
Cover : Yes
Attachments : cover.jpg

Video
ID : 1
Format : AVC
Format/Info : Advanced Video Codec
Format profile : [email protected]
Format settings, CABAC : Yes
Format settings, ReFrames : 2 frames
Format settings, GOP : M=1, N=10
Codec ID : V_MPEG4/ISO/AVC
Duration : 1 h 56 min
Bit rate mode : Variable
Bit rate : 27.3 Mb/s
Width : 1 920 pixels
Height : 1 080 pixels
Display aspect ratio : 16:9
Frame rate mode : Constant
Frame rate : 23.976 (24000/1001) FPS
Color space : YUV
Chroma subsampling : 4:2:0
Bit depth : 8 bits
Scan type : Progressive
Bits/(Pixel*Frame) : 0.550
Stream size : 22.2 GiB (81%)
Language : English
Default : Yes
Forced : No

Audio #1
ID : 2
Format : AC-3
Format/Info : Audio Coding 3
Mode extension : CM (complete main)
Format settings, Endianness : Big
Codec ID : A_AC3
Duration : 1 h 56 min
Bit rate mode : Constant
Bit rate : 384 kb/s
Channel(s) : 6 channels
Channel positions : Front: L C R, Side: L R, LFE
Sampling rate : 48.0 kHz
Frame rate : 31.250 FPS (1536 spf)
Bit depth : 16 bits
Compression mode : Lossy
Stream size : 319 MiB (1%)
Title : iTunes
Language : Russian
Default : Yes
Forced : No

Audio #2
ID : 3
Format : AC-3
Format/Info : Audio Coding 3
Mode extension : CM (complete main)
Format settings, Endianness : Big
Codec ID : A_AC3
Duration : 1 h 56 min
Bit rate mode : Constant
Bit rate : 384 kb/s
Channel(s) : 6 channels
Channel positions : Front: L C R, Side: L R, LFE
Sampling rate : 48.0 kHz
Frame rate : 31.250 FPS (1536 spf)
Bit depth : 16 bits
Compression mode : Lossy
Stream size : 320 MiB (1%)
Title : MVO
Language : Russian
Default : No
Forced : No

Audio #3
ID : 4
Format : DTS
Format/Info : Digital Theater Systems
Mode : 16
Format settings, Endianness : Big
Codec ID : A_DTS
Duration : 1 h 56 min
Bit rate mode : Constant
Bit rate : 1 509 kb/s
Channel(s) : 6 channels
Channel positions : Front: L C R, Side: L R, LFE
Sampling rate : 48.0 kHz
Frame rate : 93.750 FPS (512 spf)
Bit depth : 24 bits
Compression mode : Lossy
Stream size : 1.23 GiB (4%)
Title : AVO [А.Матвеев]
Language : Russian
Default : No
Forced : No

Audio #4
ID : 5
Format : DTS
Format/Info : Digital Theater Systems
Format profile : MA / Core
Mode : 16
Format settings, Endianness : Big
Codec ID : A_DTS
Duration : 1 h 56 min
Bit rate mode : Variable / Constant
Bit rate : 4 207 kb/s / 1 509 kb/s
Channel(s) : 8 channels / 6 channels
Channel positions : Front: L C R, Side: L R, Back: L R, LFE / Front: L C R, Side: L R, LFE
Sampling rate : 48.0 kHz
Frame rate : 93.750 FPS (512 spf)
Bit depth : 24 bits
Compression mode : Lossless / Lossy
Stream size : 3.42 GiB (12%)
Title : Original
Language : English
Default : No
Forced : No

Text #1
ID : 6
Format : UTF-8
Codec ID : S_TEXT/UTF8
Codec ID/Info : UTF-8 Plain Text
Duration : 40 min 3 s
Bit rate : 1 b/s
Count of elements : 13
Stream size : 552 Bytes (0%)
Title : Forced
Language : Russian
Default : Yes
Forced : No

Text #2
ID : 7
Format : UTF-8
Codec ID : S_TEXT/UTF8
Codec ID/Info : UTF-8 Plain Text
Duration : 1 h 49 min
Bit rate : 72 b/s
Count of elements : 759
Stream size : 57.7 KiB (0%)
Title : Full
Language : Russian
Default : No
Forced : No

Text #3
ID : 8
Format : UTF-8
Codec ID : S_TEXT/UTF8
Codec ID/Info : UTF-8 Plain Text
Duration : 1 h 48 min
Bit rate : 53 b/s
Count of elements : 1219
Stream size : 42.8 KiB (0%)
Title : Full
Language : English
Default : No
Forced : No

Menu
00:00:00.000 : en:00:00:00.000
00:09:49.923 : en:00:09:49.923
00:17:33.552 : en:00:17:33.552
00:23:28.282 : en:00:23:28.282
00:33:54.157 : en:00:33:54.157
00:41:01.709 : en:00:41:01.709
00:52:26.101 : en:00:52:26.101
00:57:34.576 : en:00:57:34.576
01:03:06.449 : en:01:03:06.449
01:09:29.207 : en:01:09:29.207
01:16:09.398 : en:01:16:09.398
01:25:21.825 : en:01:25:21.825
01:35:37.065 : en:01:35:37.065
01:45:26.695 : en:01:45:26.695




Скачать Прибытие через торрент http://i89.fastpic.ru/big/2017/0131/f4/e30f0377fd58c8ec84de2d47e60c2cf4.jpg Скачать, смотреть онлайн Прибытие бесплантно в хорошем качестве Описание: Неожиданное появление неопознанных летающих объектов в разных точках планеты повергает мир в трепет. Намерения пришельцев не ... 8.3 10 15
Info! Золотая раздача, скачанное не засчитывается.
Торрент: Зарегистрирован [2017-02-04 07:35] · скачан: 325 раз
Статус: √ проверено
Размер: 27.5 GB
Как cкачать? Как скачать Прибытие через торрент | UTorrent

% Раздел Тема Автор DL S | L
Ultra HD (UHD: 2K, 4K, 8K) [ 19.43 GB ] Прибытие / Arrival | DUB | 2160p sheker187 Скачать
1 | 0
Ultra HD (UHD: 2K, 4K, 8K) [ 68.63 GB ] Прибытие / Arrival | DUB + MVO + 7xAVO | 2160p sheker187 Скачать
1 | 0
Фильмы 2016 [DVDrip, WEB-DLRip, HDrip] (DUB, MVO) [ 2.18 GB ] Прибытие / Arrival | Лицензия | BDRip-AVC sokol_ok Скачать
2 | 0
Фильмы 2016 [DVDrip, WEB-DLRip, HDrip] (DUB, MVO) [ 746 MB ] Прибытие / Arrival | Лицензия | BDRip-AVC sokol_ok Скачать
2 | 0
Фильмы 2016 [DVDrip, WEB-DLRip, HDrip] (DUB, MVO) [ 1.47 GB ] Прибытие / Arrival | Лицензия | BDRip-AVC sokol_ok Скачать
2 | 0
Ultra HD (UHD: 2K, 4K, 8K) [ 51.04 GB ] Прибытие / Arrival | Лицензия | 2160p bober100 Скачать
1 | 0
Фильмы [HD 720p, 1080p] (Хороший звук DUB, MVO) [ 8.03 GB ] Прибытие / Arrival | DUB + 6xAVO + Original + Sub | 720p от _denis_100 | NNNB _denis_100 Скачать
1 | 0



Последний раз редактировалось: killermax2013 (2017-02-04 07:58), всего редактировалось 1 раз

28-11-2019 20:33  


Отключить вcю реклaмy на сайте, в т.ч. и в плеере онлайн просмотра!

04-02-2017 07:49 Прибытие Скачать торрент  

Ну что, фильмец нормальный? стоит качать?



04-02-2017 08:38 Прибытие Скачать торрент  

ну ооочень нудный фильм



04-02-2017 09:46 Прибытие Скачать торрент  

больше драма что что то еще



04-02-2017 16:26 Прибытие Скачать торрент  

че жадные на скорост все что ли?



04-02-2017 16:46 Прибытие Скачать торрент  

бред сумасшедшего!



04-02-2017 22:33 Прибытие Скачать торрент  

по комментариям я понял что отзывы написаны детишками.и так,это фильм для думающих людей,для людей взрослых,взрослых не годами а душой,зрелых мозгом и мудрых сознанием. фильм не об инопланетянах и контакте с ними. а о том что бесценно в этой вселенной. если вы любитель и поклонник людей Х,железных челов,звёздных войн и т.п. то не тратте время на этот фильм.



05-02-2017 00:43 Прибытие Скачать торрент  

denstalkermizantrop писал(а):

по комментариям я понял что отзывы написаны детишками.и так,это фильм для думающих людей,для людей взрослых,взрослых не годами а душой,зрелых мозгом и мудрых сознанием. фильм не об инопланетянах и контакте с ними. а о том что бесценно в этой вселенной. если вы любитель и поклонник людей Х,железных челов,звёздных войн и т.п. то не тратте время на этот фильм.

Полностью согласен, ребятам видать лет по 15-18, нудный, бред и тд. Но фильм очень крутой на самом деле, похож на Контакт с джоди фостер. А бред сумасшедшего это как раз последние два фильма по Звездным войнам, осилил с 3 раз.



05-02-2017 10:19 Прибытие Скачать торрент  

Oceanoz писал(а):

denstalkermizantrop писал(а):

по комментариям я понял что отзывы написаны детишками.и так,это фильм для думающих людей,для людей взрослых,взрослых не годами а душой,зрелых мозгом и мудрых сознанием. фильм не об инопланетянах и контакте с ними. а о том что бесценно в этой вселенной. если вы любитель и поклонник людей Х,железных челов,звёздных войн и т.п. то не тратте время на этот фильм.

Полностью согласен, ребятам видать лет по 15-18, нудный, бред и тд. Но фильм очень крутой на самом деле, похож на Контакт с джоди фостер. А бред сумасшедшего это как раз последние два фильма по Звездным войнам, осилил с 3 раз.

уж лучше посмотреть 10 раз звёздные войны чем эту скукотищу



05-02-2017 16:54 Прибытие Скачать торрент  

ну так сморите звездные войны.
фильм отличный .



    Дорогой пользователь! Огромная просьба, поблагодарите релизера, оцените раздачу и оставьте свои комментарий, если Вы скачали Прибытие через торрент бесплатно!!
    Комментировать посты могут только пользователи прошедшие не сложную регистрацию
    Показать сообщения:    


    Прибытие через торрент
    Скачать бесплатно Прибытие
    Прибытие скачать торрент
    Прибытие смотреть онлайн
    Cкачать фильм Прибытие бесплатно
    Прибытие скачать торрент в хорошем качестве
    Прибытие смотреть онлайн бесплатно в хорошем качестве
    Вы не можете начинать темы
    Вы не можете отвечать на сообщения
    Вы не можете редактировать свои сообщения
    Вы не можете удалять свои сообщения
    Вы не можете голосовать в опросах
    Вы не можете прикреплять файлы к сообщениям
    Вы можете скачивать файлы
    Прибытие / Arrival [2016, Фантастика, триллер, драма, детектив, Blu-Ray Remux 1080p] [Дубляж] [Лицензия / iTunes] + [MVO] + [AVO] + [Sub] смотреть онлайн, скачать торрент picoco.icu