Ссылка на приватное зеркало нашего сайта всего за 1$. Внимание количество ограничено!!!

2 сезон

iTunes

1 сезон

1

iTunes

iTunes

iTunes

1 сезон

RePack

30

ИГРА 18+

pack

ВАЖНО

!!Акция!!

Alien_RageХит недели

RePack

MK11
pack

Забери бонус

RePack

jed

!!Акция!!

Alien_Rage

RePack

fifa19

RePack

Assassins Creed: Odyssey

RePack

NEED FOR SPEED™ PAYBACK

4 сезон

9 сезон

Бесстыжие 9 сезон

Все сериалы

все сериалы на PB.wtf

RePack

FAR CRY 5
  

Седьмое путешествие Синдбада / The 7th Voyage of Sinbad (Натан Юран) [1958, фэнтези, боевик, приключения, семейный, BDRip 1080p by msltel] DUB, MVO, 2 x AVO pb.wtf

Седьмое путешествие Синдбада через торрент pb.wtf

Размер: 13 GB | Добавлен: 3 года 8 мес. назад | Торрент скачан:30 раз
Скачать  

04-02-2017 09:22 Седьмое путешествие Синдбада Скачать торрент  

Название: Седьмое путешествие Синдбада
Оригинальное название: The 7th Voyage of Sinbad
Год выпуска: 1958
Страна: США
Жанр: фэнтези, боевик, приключения, семейный
Продолжительность: 01:28:09
Перевод: дублированный, профессиональный многоголосый, авторский

Режиссёр: Натан Юран

В ролях: Кервин Мэтьюз, Кэтрин Грант, Ричард Айер, Торин Тэтчер, Алек Мэнго, Дэнни Грин, Харольд Каскет, Альфред Браун, Нана ДэХеррера, Нино Фаланга

Описание: Синдбад, желая избавить свою невесту от колдовских чар злого колдуна Сакуры, отправляется к волшебному острову, где его и его друзей поджидает множество опасностей и испытаний. Синдбад должен победить мерзкого одноглазого циклопа и огромного дракона, сразиться с чёрным чародеем и, в конце концов, одержав победу над силами зла и освободив от заклятья любимую, отправиться вперёд, навстречу новым подвигам...



Качество: BDRip 1080p
Формат: MKV
Видео: MPEG-4 AVC, 16.2 Mбит/с, 1800x1080, 23,976 кадра/с
Аудио 1: русский, AC3, 192 kbps, 2 ch, 48 kHz [дублированный]
Аудио 2: русский, DTS, 1509 kbps, 6 ch, 48 kHz [профессиональный многоголосый]
Аудио 3: русский, AC3, 192 kbps, 2 ch, 48 kHz [авторский, Леонид Володарский]
Аудио 4: русский, DTS, 1509 kbps, 6 ch, 48 kHz [авторский, Юрий Живов]
Аудио 5: английский, DTS, 1509 kbps, 6 ch, 48 kHz [оригинал]
Субтитры 1: русские
Субтитры 2: английские
Имеются неименованные главы/чаптеры.
Общее
Уникальный идентификатор : 188683638868881003935653683965236153002 (0x8DF325A28937402C9A9C5B178A610AAA)
Полное имя : D:\Video\Седьмое путешествие Синдбада.1958.BDRip.1080p by msltel.mkv
Формат : Matroska
Версия формата : Version 4 / Version 2
Размер файла : 13,0 Гбайт
Продолжительность : 1 ч. 28 м.
Общий поток : 21,1 Мбит/сек
Название фильма : Rip by msltel
Дата кодирования : UTC 2017-02-04 07:45:01
Программа кодирования : mkvmerge v8.2.0 ('World of Adventure') 64bit
Библиотека кодирования : libebml v1.3.1 + libmatroska v1.4.2

Видео
Идентификатор : 1
Формат : AVC
Формат/Информация : Advanced Video Codec
Профиль формата : High@L4.1
Параметр CABAC формата : Да
Параметр ReFrames формата : 4 кадра
Идентификатор кодека : V_MPEG4/ISO/AVC
Продолжительность : 1 ч. 28 м.
Битрейт : 16,2 Мбит/сек
Ширина : 1800 пикселей
Высота : 1080 пикселей
Соотношение сторон : 5:3
Режим частоты кадров : Постоянный
Частота кадров : 23,976 (24000/1001) кадра/сек
Цветовое пространство : YUV
Субдискретизация насыщенности : 4:2:0
Битовая глубина : 8 бит
Тип развёртки : Прогрессивная
Бит/(Пиксели*Кадры) : 0.347
Размер потока : 9,97 Гбайт (77%)
Библиотека кодирования : x264 core 146 r2538 121396c
Настройки программы : cabac=1 / ref=4 / deblock=1:-2:-2 / analyse=0x3:0x113 / me=umh / subme=11 / psy=1 / psy_rd=1.00:0.15 / mixed_ref=1 / me_range=32 / chroma_me=1 / trellis=2 / 8x8dct=1 / cqm=0 / deadzone=21,11 / fast_pskip=0 / chroma_qp_offset=-3 / threads=6 / lookahead_threads=1 / sliced_threads=0 / nr=0 / decimate=1 / interlaced=0 / bluray_compat=0 / constrained_intra=0 / bframes=11 / b_pyramid=2 / b_adapt=2 / b_bias=0 / direct=1 / weightb=1 / open_gop=0 / weightp=2 / keyint=230 / keyint_min=23 / scenecut=40 / intra_refresh=0 / rc_lookahead=40 / rc=crf / mbtree=0 / crf=20.0 / qcomp=0.60 / qpmin=0 / qpmax=69 / qpstep=4 / vbv_maxrate=62500 / vbv_bufsize=78125 / crf_max=0.0 / nal_hrd=none / filler=0 / ip_ratio=1.40 / pb_ratio=1.30 / aq=1:1.00
Язык : English
Default : Да
Forced : Нет

Аудио #1
Идентификатор : 2
Формат : AC-3
Формат/Информация : Audio Coding 3
Расширение режима : CM (complete main)
Параметр Endianness формата : Big
Идентификатор кодека : A_AC3
Продолжительность : 1 ч. 28 м.
Вид битрейта : Постоянный
Битрейт : 192 Кбит/сек
Каналы : 2 канала
Расположение каналов : Front: L R
Частота : 48,0 КГц
Частота кадров : 31,250 кадров/сек (1536 spf)
Битовая глубина : 16 бит
Метод сжатия : С потерями
Размер потока : 121 Мбайт (1%)
Заголовок : DUB
Язык : Russian
Default : Да
Forced : Нет

Аудио #2
Идентификатор : 3
Формат : DTS
Формат/Информация : Digital Theater Systems
Режим : 16
Параметр Endianness формата : Big
Идентификатор кодека : A_DTS
Продолжительность : 1 ч. 28 м.
Вид битрейта : Постоянный
Битрейт : 1509 Кбит/сек
Каналы : 6 каналов
Расположение каналов : Front: L C R, Side: L R, LFE
Частота : 48,0 КГц
Частота кадров : 93,750 кадра/сек (512 spf)
Битовая глубина : 16 бит
Метод сжатия : С потерями
Размер потока : 951 Мбайт (7%)
Заголовок : MVO
Язык : Russian
Default : Нет
Forced : Нет

Аудио #3
Идентификатор : 4
Формат : AC-3
Формат/Информация : Audio Coding 3
Расширение режима : CM (complete main)
Параметр Endianness формата : Big
Идентификатор кодека : A_AC3
Продолжительность : 1 ч. 28 м.
Вид битрейта : Постоянный
Битрейт : 192 Кбит/сек
Каналы : 2 канала
Расположение каналов : Front: L R
Частота : 48,0 КГц
Частота кадров : 31,250 кадров/сек (1536 spf)
Битовая глубина : 16 бит
Метод сжатия : С потерями
Размер потока : 121 Мбайт (1%)
Заголовок : AVO (Леонид Володарский)
Язык : Russian
Default : Нет
Forced : Нет

Аудио #4
Идентификатор : 5
Формат : DTS
Формат/Информация : Digital Theater Systems
Режим : 16
Параметр Endianness формата : Big
Идентификатор кодека : A_DTS
Продолжительность : 1 ч. 28 м.
Вид битрейта : Постоянный
Битрейт : 1509 Кбит/сек
Каналы : 6 каналов
Расположение каналов : Front: L C R, Side: L R, LFE
Частота : 48,0 КГц
Частота кадров : 93,750 кадра/сек (512 spf)
Битовая глубина : 16 бит
Метод сжатия : С потерями
Размер потока : 951 Мбайт (7%)
Заголовок : AVO (Юрий Живов)
Язык : Russian
Default : Нет
Forced : Нет

Аудио #5
Идентификатор : 6
Формат : DTS
Формат/Информация : Digital Theater Systems
Режим : 16
Параметр Endianness формата : Big
Идентификатор кодека : A_DTS
Продолжительность : 1 ч. 28 м.
Вид битрейта : Постоянный
Битрейт : 1509 Кбит/сек
Каналы : 6 каналов
Расположение каналов : Front: L C R, Side: L R, LFE
Частота : 48,0 КГц
Частота кадров : 93,750 кадра/сек (512 spf)
Битовая глубина : 16 бит
Метод сжатия : С потерями
Размер потока : 951 Мбайт (7%)
Заголовок : original
Язык : English
Default : Нет
Forced : Нет

Текст #1
Идентификатор : 7
Формат : UTF-8
Идентификатор кодека : S_TEXT/UTF8
Идентификатор кодека/Информация : UTF-8 Plain Text
Продолжительность : 1 ч. 25 м.
Битрейт : 54 бит/сек
Count of elements : 690
Размер потока : 34,4 Кбайт (0%)
Заголовок : русские
Язык : Russian
Default : Нет
Forced : Нет

Текст #2
Идентификатор : 8
Формат : UTF-8
Идентификатор кодека : S_TEXT/UTF8
Идентификатор кодека/Информация : UTF-8 Plain Text
Продолжительность : 1 ч. 25 м.
Битрейт : 39 бит/сек
Count of elements : 692
Размер потока : 24,6 Кбайт (0%)
Заголовок : английские
Язык : English
Default : Нет
Forced : Нет

Меню
00:00:00.000 : :Chapter 01
00:06:45.989 : :Chapter 02
00:10:15.948 : :Chapter 03
00:17:48.693 : :Chapter 04
00:21:07.099 : :Chapter 05
00:27:20.429 : :Chapter 06
00:32:18.603 : :Chapter 07
00:37:52.270 : :Chapter 08
00:42:18.494 : :Chapter 09
00:47:28.554 : :Chapter 10
00:53:23.826 : :Chapter 11
01:00:28.375 : :Chapter 12
01:06:50.798 : :Chapter 13
01:12:50.992 : :Chapter 14
01:16:29.794 : :Chapter 15
01:24:58.593 : :Chapter 16
pb.wtf



Скачать Седьмое путешествие Синдбада через торрент http://s019.radikal.ru/i619/1702/30/1e283ef7757d.jpg Скачать фильм Седьмое путешествие Синдбада через торрент бесплантно в хорошем качестве Описание: Синдбад, желая избавить свою невесту от колдовских чар злого колдуна Сакуры, отправляется к волшебному острову, где его и его ... 8.2 10 5
Info! Золотая раздача, скачанное не засчитывается.
Торрент: Зарегистрирован [2017-02-04 09:22] · скачан: 30 раз
Статус: √ проверено
Размер: 13 GB
Как cкачать? Как скачать Седьмое путешествие Синдбада через торрент | qTorrent

% Раздел Тема Автор DL S | L
Фильмы [HD 720p, 1080p] (Хороший звук DUB, MVO) [ 5.2 GB ] Седьмое путешествие Синдбада / The 7th Voyage of Sinbad [1958 BDRip 720p by msltel] DUB MVO 2 x AVO msltel Скачать
1 | 0


Последний раз редактировалось: msltel (2017-02-04 12:02), всего редактировалось 1 раз

28-11-2019 20:33  

Отключить всю рекламу на сайте

04-02-2017 09:59 Седьмое путешествие Синдбада Скачать торрент  

Спс, как взрыв из прошлого, с удовольствием пересмотрю!pb.wtf



    Дорогой пользователь! Огромная просьба, поблагодарите релизера, оцените раздачу и оставьте свои комментарий, если Вы скачали Седьмое путешествие Синдбада через торрент бесплатно! Внесите свою лепту в развитие PiratBit!
    Комментировать посты могут только пользователи прошедшие не сложную регистрацию
    Показать сообщения:    

    Седьмое путешествие Синдбада через торрент
    Скачать бесплатно Седьмое путешествие Синдбада
    Седьмое путешествие Синдбада скачать торрент
    Седьмое путешествие Синдбада смотреть онлайн
    Cкачать фильм Седьмое путешествие Синдбада бесплатно
    Седьмое путешествие Синдбада скачать торрент в хорошем качестве
    Седьмое путешествие Синдбада смотреть онлайн бесплатно в хорошем качестве


    Вы не можете начинать темы
    Вы не можете отвечать на сообщения
    Вы не можете редактировать свои сообщения
    Вы не можете удалять свои сообщения
    Вы не можете голосовать в опросах
    Вы не можете прикреплять файлы к сообщениям
    Вы можете скачивать файлы