Ссылка на приватное зеркало нашего сайта всего за 1$. Внимание количество ограничено!!!

2 сезон

iTunes

1 сезон

1

iTunes

iTunes

iTunes

1 сезон

RePack

30

ИГРА 18+

pack

ВАЖНО

!!Акция!!

Alien_RageХит недели

RePack

MK11
pack

Забери бонус

RePack

jed

!!Акция!!

Alien_Rage

RePack

fifa19

RePack

Assassins Creed: Odyssey

RePack

NEED FOR SPEED™ PAYBACK

4 сезон

9 сезон

Бесстыжие 9 сезон

Все сериалы

все сериалы на PB.wtf

RePack

FAR CRY 5
  

Тёща-командир/ Сезон 1 / Серии 1-4 из 4 (Сергей Мезенцев, Анна Ерофеева) [2017 г., Мелодрама, SATRip] pb.wtf

Тёща-командир через торрент pb.wtf

Размер: 2.45 GB | Добавлен: 3 года 8 мес. назад | Торрент скачан:219 раз
Скачать  

04-02-2017 15:30 Тёща-командир Скачать торрент  

Тёща-командир
Год выпуска: 2017
Страна: Россия
Жанр: Мелодрама
Продолжительность: 4 х ~ 00:45:00
Субтитры: нет

Режиссер: Сергей Мезенцев, Анна Ерофеева

В ролях: Янина Соколовская, Максим Дрозд, Анна Васильева, Юрий Поляк, Виктория Лемзякова, Михаил Богдасаров

Описание: "Катвас" - так за глаза сотрудники агентства недвижимости называют свою грозную начальницу Катерину Васильевну Тихонову, которая никому не дает спуску, в особенности своему зятю Юрию. Она считает, что Юра недостоин ее дочки Гали, и делает все для того, чтобы их развести. Увлеченная работой и семейными проблемами, Катерина даже не замечает, что в нее влюблен ее личный шофер Максим. Но гордость и предубеждения управляют ее чувствами и здесь. Чтобы найти свое счастье и окончательно не разрушить счастье дочери, Катерине придется наступить на горло собственным принципам...

Качество: SATRip
Формат: AVI
Видео кодек: XviD
Аудио кодек: MP3
Видео: 720x400 (1.80:1), 25 fps, XviD build 50 ~1800 kbps avg, 0.25 bit/pixel
Аудио: 48 kHz, MPEG Layer 3, 2 ch, ~128.00 kbps avg



General
Complete name : H:\релизы.торрентфайл\Tjoshha.komandir.SATRip.[www.riperam.org]\Tjoshha.komandir.02.SATRip.[www.riperam.org].avi
Format : AVI
Format/Info : Audio Video Interleave
File size : 616 MiB
Duration : 44mn 28s
Overall bit rate : 1 937 Kbps
Writing application : VirtualDubMod 1.5.10.3 | www.virtualdub-fr.org || (build 2550/release)
Writing library : VirtualDubMod build 2550/release

Video
ID : 0
Format : MPEG-4 Visual
Format profile : Advanced Simple@L5
Format settings, BVOP : 2
Format settings, QPel : No
Format settings, GMC : No warppoints
Format settings, Matrix : Default (H.263)
Codec ID : XVID
Codec ID/Hint : XviD
Duration : 44mn 28s
Bit rate : 1 800 Kbps
Width : 720 pixels
Height : 400 pixels
Display aspect ratio : 16:9
Frame rate : 25.000 fps
Color space : YUV
Chroma subsampling : 4:2:0
Bit depth : 8 bits
Scan type : Progressive
Compression mode : Lossy
Bits/(Pixel*Frame) : 0.250
Stream size : 573 MiB (93%)
Writing library : XviD 1.2.1 (UTC 2008-12-04)

Audio
ID : 1
Format : MPEG Audio
Format version : Version 1
Format profile : Layer 3
Mode : Joint stereo
Mode extension : MS Stereo
Codec ID : 55
Codec ID/Hint : MP3
Duration : 44mn 28s
Bit rate mode : Constant
Bit rate : 128 Kbps
Channel(s) : 2 channels
Sampling rate : 48.0 KHz
Compression mode : Lossy
Stream size : 40.7 MiB (7%)
Alignment : Aligned on interleaves
Interleave, duration : 40 ms (1.00 video frame)
Interleave, preload duration : 504 ms
Writing library : LAME3.99r
Encoding settings : -m j -V 4 -q 2 -lowpass

pb.wtf



Скачать Тёща-командир через торрент http://pic1.kartinco.top/images/11/exuox.jpg Скачать фильм Тёща-командирчерез торрент бесплантно в хорошем качестве Описание: "Катвас" - так за глаза сотрудники агентства недвижимости называют свою грозную начальницу Катерину Васильевну Тихонову, которая ... 10 10 7
Торрент: Зарегистрирован [2017-02-04 15:30] · скачан: 219 раз
Статус: √ проверено
Размер: 2.45 GB
Как cкачать? Как скачать Тёща-командир через торрент | qTorrent

28-11-2019 20:33  

Отключить всю рекламу на сайте

    Дорогой пользователь! Огромная просьба, поблагодарите релизера, оцените раздачу и оставьте свои комментарий, если Вы скачали Тёща-командир через торрент бесплатно! Внесите свою лепту в развитие PiratBit!
    Комментировать посты могут только пользователи прошедшие не сложную регистрацию
    Показать сообщения:    

    Тёща-командир через торрент
    Скачать бесплатно Тёща-командир
    Тёща-командир скачать торрент
    Тёща-командир смотреть онлайн
    Cкачать фильм Тёща-командир бесплатно
    Тёща-командир скачать торрент в хорошем качестве
    Тёща-командир смотреть онлайн бесплатно в хорошем качестве


    Вы не можете начинать темы
    Вы не можете отвечать на сообщения
    Вы не можете редактировать свои сообщения
    Вы не можете удалять свои сообщения
    Вы не можете голосовать в опросах
    Вы не можете прикреплять файлы к сообщениям
    Вы можете скачивать файлы