1 сезон

3 сезон

iTunes

1

Line

MVO

iTunes

13

1 сезон

RePack

30

Deluxe

pack

Лицензия

ВАЖНО

ИГРА 18+

pack

RePack

MK11

RePack

jed

RePack

fifa19

RePack

RDR2

RePack

NEED FOR SPEED™ PAYBACK

4 сезон

9 сезон

Бесстыжие 9 сезон

Все сериалы

все сериалы на PB.wtf

RePack

FAR CRY 5

Anonymous, доброй ночи, мы катастрофически не успеваем собрать деньги на оплату серверов, помогите нам пожалуйста 5,10,15р., для нас важна любая помощь . В качестве благодарности мы отключим Вам всю рекламу на сайте (укажите свой ник в строку Ваше имя)!

×
  
Magnet ссылка

Взлом (Максим Кубринский) [2017 г., Криминал, драма, HDTVRip, Русский] от R.G.Resident pb.wtf

Взлом через торрент pb.wtf

Размер: 1.46 GB | Добавлен: 4 года 5 мес. назад | Торрент скачан:488 раз
Скачать  

04-02-2017 21:43 Взлом Скачать торрент  

Взлом
Год выпуска: 2017
Страна: Россия, ООО «Кинокомпания Гамма»
Жанр: Криминал, драма
Продолжительность: 01:41:08
Язык: Русский

Режиссер: Максим Кубринский

В ролях: Дмитрий Марьянов, Владимир Гуськов, Ингрид Олеринская, Олег Харитонов, Тимур Ефременков, Виктор Конухин, Денис Ясик, Михаил Горский, Елена Лагута, Андрей Белозёров, Дарья Киричек, Илья Роговин, Артур Бичахчян, Софья Юрко

Описание: Фильм расскажет об истории отношений полковника полиции, всю жизнь просидевшего в отделе кадров, и молодого хакера, претендующего на руку и сердце его дочери, которую неожиданно похищают. Это обстоятельство вынуждает заклятых врагов объединиться и броситься на поиски несчастной девушки...

Качество: HDTVRip
Формат: AVI
Видео кодек: 720x400 (1.80:1), 25 fps, XviD build 65 ~1859 kbps avg, 0.26 bit/pixel
Аудио кодек: 48 kHz, AC3 Dolby Digital, 2/0 (L,R) ch, ~192.00 kbps avg

Релиз от: ruslanishe

General
Vzlom.2016.XviD.R.G.Resident.avi
Format : AVI
Format/Info : Audio Video Interleave
File size : 1.46 GiB
Duration : 1h 41mn
Overall bit rate : 2 061 Kbps
Director : ruslanishe
Writing application : VirtualDubMod 1.5.10.3 | www.virtualdub-fr.org || (build 2550/release)
Copyright : R.G.Resident

Video
ID : 0
Format : MPEG-4 Visual
Format profile : Advanced Simple@L5
Format settings, BVOP : 2
Format settings, QPel : No
Format settings, GMC : No warppoints
Format settings, Matrix : Custom
Codec ID : XVID
Codec ID/Hint : XviD
Duration : 1h 41mn
Bit rate : 1 859 Kbps
Width : 720 pixels
Height : 400 pixels
Display aspect ratio : 16:9
Frame rate : 25.000 fps
Color space : YUV
Chroma subsampling : 4:2:0
Bit depth : 8 bits
Scan type : Progressive
Compression mode : Lossy
Bits/(Pixel*Frame) : 0.258
Stream size : 1.31 GiB (90%)
Writing library : XviD 65

Audio
ID : 1
Format : AC-3
Format/Info : Audio Coding 3
Mode extension : CM (complete main)
Format settings, Endianness : Big
Codec ID : 2000
Duration : 1h 41mn
Bit rate mode : Constant
Bit rate : 192 Kbps
Channel(s) : 2 channels
Channel positions : Front: L R
Sampling rate : 48.0 KHz
Bit depth : 16 bits
Compression mode : Lossy
Stream size : 139 MiB (9%)
Alignment : Split accross interleaves
Interleave, duration : 40 ms (1.00 video frame)
Interleave, preload duration : 500 ms

pb.wtf



Скачать Взлом через торрент http://s020.radikal.ru/i716/1702/6b/ffd968c383a5.jpg Скачать фильм Взлом через торрент бесплантно в хорошем качестве Описание: Фильм расскажет об истории отношений полковника полиции, всю жизнь просидевшего в отделе кадров, и молодого хакера, претендующего ... 9.2 10 12
Info! Золотая раздача, скачанное не засчитывается.
Торрент: Зарегистрирован [2017-02-04 21:43] · скачан: 488 раз
Статус: √ проверено
Размер: 1.46 GB
Как cкачать? Как скачать Взлом через торрент | UTorrent

28-11-2019 20:33  

Отключить всю рекламу на сайте

    Дорогой пользователь! Огромная просьба, поблагодарите релизера, оцените раздачу и оставьте свои комментарий, если Вы скачали Взлом через торрент бесплатно! Внесите свою лепту в развитие PiratBit!
    Комментировать посты могут только пользователи прошедшие не сложную регистрацию
    Показать сообщения:    

    Взлом через торрент
    Скачать бесплатно Взлом
    Взлом скачать торрент
    Взлом смотреть онлайн
    Cкачать фильм Взлом бесплатно
    Взлом скачать торрент в хорошем качестве
    Взлом смотреть онлайн бесплатно в хорошем качестве


    Вы не можете начинать темы
    Вы не можете отвечать на сообщения
    Вы не можете редактировать свои сообщения
    Вы не можете удалять свои сообщения
    Вы не можете голосовать в опросах
    Вы не можете прикреплять файлы к сообщениям
    Вы можете скачивать файлы