Ссылка на приватное зеркало нашего сайта всего за 1$. Внимание количество ограничено!!!

2 сезон

iTunes

1 сезон

1

iTunes

iTunes

iTunes

1 сезон

RePack

30

ИГРА 18+

pack

ВАЖНО

!!Акция!!

Alien_RageХит недели

RePack

MK11
pack

Забери бонус

RePack

jed

!!Акция!!

Alien_Rage

RePack

fifa19

RePack

Assassins Creed: Odyssey

RePack

NEED FOR SPEED™ PAYBACK

4 сезон

9 сезон

Бесстыжие 9 сезон

Все сериалы

все сериалы на PB.wtf

RePack

FAR CRY 5
  

Король-рыбак / The Fisher King (Терри Гиллиам) [1991, фэнтези, драма, комедия, BDRip 1080p by msltel] DUB, 2 x MVO, DVO, AVO pb.wtf

Король-рыбак через торрент pb.wtf

Размер: 23.49 GB | Добавлен: 3 года 8 мес. назад | Торрент скачан:20 раз
Скачать  

05-02-2017 07:46 Король-рыбак Скачать торрент  

Название: Король-рыбак
Оригинальное название: The Fisher King
Год выпуска: 1991
Страна: США
Жанр: фэнтези, драма, комедия
Продолжительность: 02:17:54
Перевод: дублированный, профессиональный многоголосый, профессиональный двухголосый, авторский

Режиссёр: Терри Гиллиам

В ролях: Джефф Бриджес, Робин Уильямс, Мерседес Рул, Аманда Пламмер, Дэвид Хайд Пирс, Адам Брайант, Пол Дж. Ломбарди, Тед Росс, Лара Харрис, Уоррен Олни, Фрейзер Смит, Кэти Нэджими, Гарри Ширер, Мелинда Кулеа, Джеймс Ремини, Марк Боуден, Джон Оттавино, Брайан Майклс, Джейс Барток, Дэн Футтерман, Брэдли Грегг, Уильям Джей Маршалл, Уильям Престон, Эл Фэнн, Стефен Бриджуотер, Джон Хеффернан, Крис Хауэлл, Майкл Джитер, Ричард ЛаГравенес, Анита Данглер, Марк Бринглсон, Джонни Паганелли, Дайан Робин, Джон Бенжамин Ред, Лиза Блейдс, Кристиан Клименсон, Карлос Карраско, Джо Джамрог, Джон де Ланси, Лу Хэнкок, Кэролайн Кромлин, Кэтлин Бриджет

Описание: Джек был популярным радиоведущим. С чувством юмора, сарказмом и профессиональным цинизмом, который, в итоге, обернулся трагедией: один из постоянных слушателей последовал его ироничному совету, вошёл в людное кафе и разрядил полную обойму в ничего не подозревающих посетителей. Потрясённый Джек бросает работу и уходит в запой, погружаясь на дно отчаяния. В этот момент он встречает бездомного бродягу Пэрри, в прошлом профессора истории, который увлекает его в удивительный мир собственных фантазий, где по унылым улицам огромного города шествуют средневековые рыцари, а небоскрёбы превращаются в величественные замки. Вдвоём они отправляются на поиски Святого Грааля… в район Манхэттэна...



Качество: BDRip 1080p
Формат: MKV
Видео: MPEG-4 AVC, 19.3 Mбит/с, 1920x1080, 23,976 кадра/с
Аудио 1: русский, AC3, 192 kbps, 2 ch, 48 kHz [дублированный, Варус Видео]
Аудио 2: русский, AC3, 192 kbps, 2 ch, 48 kHz [профессиональный многоголосый, R5]
Аудио 3: русский, AC3, 192 kbps, 2 ch, 48 kHz [профессиональный многоголосый, Первый канал]
Аудио 4: русский, DTS, 1509 kbps, 6 ch, 48 kHz [профессиональный двухголосый]
Аудио 5: русский, DTS, 1509 kbps, 6 ch, 48 kHz [авторский, Алексей Михалёв]
Аудио 6: английский, DTS, 1509 kbps, 6 ch, 48 kHz [оригинал]
Субтитры 1: русские
Субтитры 2: английские (для слабослышащих)
Имеются неименованные главы/чаптеры.
Общее
Уникальный идентификатор : 201450108347994935542745459485136828607 (0x978DE12D40983EA9BBE0B4B0D81EB8BF)
Полное имя : D:\Video\Король-рыбак.1991.BDRip.1080p by msltel.mkv
Формат : Matroska
Версия формата : Version 4 / Version 2
Размер файла : 23,5 Гбайт
Продолжительность : 2 ч. 17 м.
Общий поток : 24,4 Мбит/сек
Название фильма : Rip by msltel
Дата кодирования : UTC 2017-02-05 05:18:24
Программа кодирования : mkvmerge v8.2.0 ('World of Adventure') 64bit
Библиотека кодирования : libebml v1.3.1 + libmatroska v1.4.2

Видео
Идентификатор : 1
Формат : AVC
Формат/Информация : Advanced Video Codec
Профиль формата : High@L4.1
Параметр CABAC формата : Да
Параметр ReFrames формата : 4 кадра
Идентификатор кодека : V_MPEG4/ISO/AVC
Продолжительность : 2 ч. 17 м.
Битрейт : 19,3 Мбит/сек
Ширина : 1920 пикселей
Высота : 1080 пикселей
Соотношение сторон : 16:9
Режим частоты кадров : Постоянный
Частота кадров : 23,976 (24000/1001) кадра/сек
Цветовое пространство : YUV
Субдискретизация насыщенности : 4:2:0
Битовая глубина : 8 бит
Тип развёртки : Прогрессивная
Бит/(Пиксели*Кадры) : 0.388
Размер потока : 18,6 Гбайт (79%)
Библиотека кодирования : x264 core 146 r2538 121396c
Настройки программы : cabac=1 / ref=4 / deblock=1:-2:-2 / analyse=0x3:0x113 / me=umh / subme=11 / psy=1 / psy_rd=1.00:0.15 / mixed_ref=1 / me_range=32 / chroma_me=1 / trellis=2 / 8x8dct=1 / cqm=0 / deadzone=21,11 / fast_pskip=0 / chroma_qp_offset=-3 / threads=6 / lookahead_threads=1 / sliced_threads=0 / nr=0 / decimate=1 / interlaced=0 / bluray_compat=0 / constrained_intra=0 / bframes=9 / b_pyramid=2 / b_adapt=2 / b_bias=0 / direct=1 / weightb=1 / open_gop=0 / weightp=2 / keyint=230 / keyint_min=23 / scenecut=40 / intra_refresh=0 / rc_lookahead=40 / rc=crf / mbtree=0 / crf=20.5 / qcomp=0.60 / qpmin=0 / qpmax=69 / qpstep=4 / vbv_maxrate=62500 / vbv_bufsize=78125 / crf_max=0.0 / nal_hrd=none / filler=0 / ip_ratio=1.40 / pb_ratio=1.30 / aq=1:1.00
Язык : English
Default : Да
Forced : Нет

Аудио #1
Идентификатор : 2
Формат : AC-3
Формат/Информация : Audio Coding 3
Расширение режима : CM (complete main)
Параметр Endianness формата : Big
Идентификатор кодека : A_AC3
Продолжительность : 2 ч. 17 м.
Вид битрейта : Постоянный
Битрейт : 192 Кбит/сек
Каналы : 2 канала
Расположение каналов : Front: L R
Частота : 48,0 КГц
Частота кадров : 31,250 кадров/сек (1536 spf)
Битовая глубина : 16 бит
Метод сжатия : С потерями
Размер потока : 189 Мбайт (1%)
Заголовок : DUB (Варус Видео)
Язык : Russian
Default : Нет
Forced : Нет

Аудио #2
Идентификатор : 3
Формат : AC-3
Формат/Информация : Audio Coding 3
Расширение режима : CM (complete main)
Параметр Endianness формата : Big
Идентификатор кодека : A_AC3
Продолжительность : 2 ч. 17 м.
Вид битрейта : Постоянный
Битрейт : 192 Кбит/сек
Каналы : 2 канала
Расположение каналов : Front: L R
Частота : 48,0 КГц
Частота кадров : 31,250 кадров/сек (1536 spf)
Битовая глубина : 16 бит
Метод сжатия : С потерями
Размер потока : 189 Мбайт (1%)
Заголовок : MVO (R5)
Язык : Russian
Default : Нет
Forced : Нет

Аудио #3
Идентификатор : 4
Формат : AC-3
Формат/Информация : Audio Coding 3
Расширение режима : CM (complete main)
Параметр Endianness формата : Big
Идентификатор кодека : A_AC3
Продолжительность : 2 ч. 17 м.
Вид битрейта : Постоянный
Битрейт : 192 Кбит/сек
Каналы : 2 канала
Расположение каналов : Front: L R
Частота : 48,0 КГц
Частота кадров : 31,250 кадров/сек (1536 spf)
Битовая глубина : 16 бит
Метод сжатия : С потерями
Размер потока : 189 Мбайт (1%)
Заголовок : MVO (Первый канал)
Язык : Russian
Default : Нет
Forced : Нет

Аудио #4
Идентификатор : 5
Формат : DTS
Формат/Информация : Digital Theater Systems
Режим : 16
Параметр Endianness формата : Big
Идентификатор кодека : A_DTS
Продолжительность : 2 ч. 17 м.
Вид битрейта : Постоянный
Битрейт : 1509 Кбит/сек
Каналы : 6 каналов
Расположение каналов : Front: L C R, Side: L R, LFE
Частота : 48,0 КГц
Частота кадров : 93,750 кадра/сек (512 spf)
Битовая глубина : 24 бит
Метод сжатия : С потерями
Размер потока : 1,45 Гбайт (6%)
Заголовок : DVO
Язык : Russian
Default : Нет
Forced : Нет

Аудио #5
Идентификатор : 6
Формат : DTS
Формат/Информация : Digital Theater Systems
Режим : 16
Параметр Endianness формата : Big
Идентификатор кодека : A_DTS
Продолжительность : 2 ч. 17 м.
Вид битрейта : Постоянный
Битрейт : 1509 Кбит/сек
Каналы : 6 каналов
Расположение каналов : Front: L C R, Side: L R, LFE
Частота : 48,0 КГц
Частота кадров : 93,750 кадра/сек (512 spf)
Битовая глубина : 24 бит
Метод сжатия : С потерями
Размер потока : 1,45 Гбайт (6%)
Заголовок : AVO (Алексей Михалёв)
Язык : Russian
Default : Нет
Forced : Нет

Аудио #6
Идентификатор : 7
Формат : DTS
Формат/Информация : Digital Theater Systems
Режим : 16
Параметр Endianness формата : Big
Идентификатор кодека : A_DTS
Продолжительность : 2 ч. 17 м.
Вид битрейта : Постоянный
Битрейт : 1509 Кбит/сек
Каналы : 6 каналов
Расположение каналов : Front: L C R, Side: L R, LFE
Частота : 48,0 КГц
Частота кадров : 93,750 кадра/сек (512 spf)
Битовая глубина : 24 бит
Метод сжатия : С потерями
Размер потока : 1,45 Гбайт (6%)
Заголовок : original
Язык : English
Default : Нет
Forced : Нет

Текст #1
Идентификатор : 8
Формат : UTF-8
Идентификатор кодека : S_TEXT/UTF8
Идентификатор кодека/Информация : UTF-8 Plain Text
Продолжительность : 2 ч. 13 м.
Битрейт : 79 бит/сек
Count of elements : 1686
Размер потока : 77,7 Кбайт (0%)
Заголовок : русские
Язык : Russian
Default : Нет
Forced : Нет

Текст #2
Идентификатор : 9
Формат : UTF-8
Идентификатор кодека : S_TEXT/UTF8
Идентификатор кодека/Информация : UTF-8 Plain Text
Продолжительность : 2 ч. 16 м.
Битрейт : 70 бит/сек
Count of elements : 2128
Размер потока : 70,9 Кбайт (0%)
Заголовок : английские (для слабослышащих)
Язык : English
Default : Нет
Forced : Нет

Меню
00:00:00.000 : :Chapter 01
00:05:06.889 : :Chapter 02
00:09:14.470 : :Chapter 03
00:17:26.170 : :Chapter 04
00:22:38.690 : :Chapter 05
00:32:06.715 : :Chapter 06
00:37:58.067 : :Chapter 07
00:42:48.940 : :Chapter 08
00:52:58.382 : :Chapter 09
00:58:02.019 : :Chapter 10
01:04:46.590 : :Chapter 11
01:12:11.118 : :Chapter 12
01:19:23.131 : :Chapter 13
01:26:18.715 : :Chapter 14
01:33:35.443 : :Chapter 15
01:42:21.801 : :Chapter 16
01:51:01.237 : :Chapter 17
02:00:03.988 : :Chapter 18
02:06:04.055 : :Chapter 19
02:12:48.877 : :Chapter 20
pb.wtf



Скачать Король-рыбак через торрент http://s018.radikal.ru/i517/1702/f5/f70231537780.jpg Скачать фильм Король-рыбак через торрент бесплантно в хорошем качестве Описание: Джек был популярным радиоведущим. С чувством юмора, сарказмом и профессиональным цинизмом, который, в итоге, обернулся трагедией: ... 5 10 1
Info! Золотая раздача, скачанное не засчитывается.
Торрент: Зарегистрирован [2017-02-05 07:46] · скачан: 20 раз
Статус: √ проверено
Размер: 23.49 GB
Как cкачать? Как скачать Король-рыбак через торрент | qTorrent

% Раздел Тема Автор DL S | L
Фильмы [HD 720p, 1080p] (Хороший звук DUB, MVO) [ 7.81 GB ] Король-рыбак / The Fisher King [1991 BDRip 720p by msltel] DUB 2 x MVO DVO AVO msltel Скачать
1 | 0

28-11-2019 20:33  

Отключить всю рекламу на сайте

    Дорогой пользователь! Огромная просьба, поблагодарите релизера, оцените раздачу и оставьте свои комментарий, если Вы скачали Король-рыбак через торрент бесплатно! Внесите свою лепту в развитие PiratBit!
    Комментировать посты могут только пользователи прошедшие не сложную регистрацию
    Показать сообщения:    

    Король-рыбак через торрент
    Скачать бесплатно Король-рыбак
    Король-рыбак скачать торрент
    Король-рыбак смотреть онлайн
    Cкачать фильм Король-рыбак бесплатно
    Король-рыбак скачать торрент в хорошем качестве
    Король-рыбак смотреть онлайн бесплатно в хорошем качестве


    Вы не можете начинать темы
    Вы не можете отвечать на сообщения
    Вы не можете редактировать свои сообщения
    Вы не можете удалять свои сообщения
    Вы не можете голосовать в опросах
    Вы не можете прикреплять файлы к сообщениям
    Вы можете скачивать файлы