Ссылка на приватное зеркало нашего сайта всего за 1$. Внимание количество ограничено!!!

2 сезон

iTunes

1 сезон

1

iTunes

iTunes

iTunes

1 сезон

RePack

30

ИГРА 18+

pack

ВАЖНО

!!Акция!!

Alien_RageХит недели

RePack

MK11
pack

Забери бонус

RePack

jed

!!Акция!!

Alien_Rage

RePack

fifa19

RePack

Assassins Creed: Odyssey

RePack

NEED FOR SPEED™ PAYBACK

4 сезон

9 сезон

Бесстыжие 9 сезон

Все сериалы

все сериалы на PB.wtf

RePack

FAR CRY 5
  

Они / Them! (Гордон Дуглас) [1954, ужасы, фантастика, BDRip 1080p от еnvy / NNNB] DVO pb.wtf

Они через торрент pb.wtf

Качают: 1 [ 0 KB/s ]
Размер: 7.76 GB | Добавлен: 3 года 8 мес. назад | Торрент скачан:13 раз
Скачать  

05-02-2017 08:29 Они Скачать торрент  

Информация о фильме

Русское название: Они
Оригинальное название: Them!
Год выхода: 1954
Жанр: ужасы, фантастика
Режиссер: Гордон Дуглас
Выпущено: США
Продолжительность: 01:32:33
Перевод: Профессиональный (двухголосый закадровый)
В ролях: Джеймс Уитмор, Эдмунд Гвенн, Джоан Уэлдон, Джеймс Арнесс, Онслоу Стивенс, Шон МакКлори, Крис Дрэйк, Сэнди Десчер, Мэри Алан Хокансон, Дон Шелтон
Сюжет фильма

В небольшом городке Нью-Мексико совершается несколько странных и зверских убийств. Ведут расследование полицейский Бен Петерсон и опытный агент ФБР Роберт Грэхем.
Сыщиков не покидает ощущение мрачной и страшной загадки: в этом деле слишком много странностей — проломленные стены, оставленные при трупах деньги, необычно убитые люди, необычные следы и странные звуки в районе преступления.
Все это приводит в Нью-Мексико совершенно неожиданных людей — доктора наук Медфорда и его очаровательную дочь Пэт. Именно они раскрывают тайну загадочных убийств — за ними стоят вовсе не люди, а огромные мутировавшие муравьи…
Эти пугающие твари опасны не только для жителей маленького городка, в случае их успешного размножения они будут представлять опасность для всего человечества.


Файл

Качество: BDRip 1080p (исходник Blu-Ray Disc Remux)
Формат: MKV
Видео: 1920x1080, 11618 Кбит/сек, 23,976 кадр/сек, AVC, x264, High@L4.1, 16:9, 0.234 Бит/[Пиксели*Кадры]
Аудио 1: AC-3, 192 Кбит/сек, 2 канала(ов), 48,0 КГц - Двухголосый закадровый / Русский
Аудио 2: AC-3, 192 Кбит/сек, 2 канала(ов), 48,0 КГц - Оригинал / Английский
Субтитры: Русские | Полные, Английские | Полные
Форсированные субтитры: Нет
Чаптеры (Главы): Есть






Автор Рипа: Группа:


Format : Matroska
Format version : Version 2
File size : 7.76 GiB
Duration : 1 h 32 min
Overall bit rate : 12.0 Mb/s
Movie name : Them.(1954).BDRip.1080p.[envy]
Encoded date : UTC 2017-02-04 07:23:56
Writing application : mkvmerge v5.8.0 ('No Sleep / Pillow') built on Sep 2 2012 15:37:04
Writing library : libebml v1.2.3 + libmatroska v1.3.0

Video
ID : 1
Format : AVC
Format/Info : Advanced Video Codec
Format profile : High@L4.1
Format settings, CABAC : Yes
Format settings, ReFrames : 4 frames
Codec ID : V_MPEG4/ISO/AVC
Duration : 1 h 32 min
Bit rate : 11.6 Mb/s
Width : 1 920 pixels
Height : 1 080 pixels
Display aspect ratio : 16:9
Frame rate mode : Constant
Frame rate : 23.976 (24000/1001) FPS
Color space : YUV
Chroma subsampling : 4:2:0
Bit depth : 8 bits
Scan type : Progressive
Bits/(Pixel*Frame) : 0.234
Stream size : 7.36 GiB (95%)
Title : Them.(1954).BDRip.1080p.[envy]
Writing library : x264 core 148 r2744 b97ae06
Encoding settings : cabac=1 / ref=4 / deblock=1:-3:-3 / analyse=0x3:0x133 / me=umh / subme=11 / psy=1 / psy_rd=1.00:0.00 / mixed_ref=1 / me_range=32 / chroma_me=1 / trellis=2 / 8x8dct=1 / cqm=0 / deadzone=21,11 / fast_pskip=0 / chroma_qp_offset=-2 / threads=12 / lookahead_threads=1 / sliced_threads=0 / nr=0 / decimate=1 / interlaced=0 / bluray_compat=0 / constrained_intra=0 / bframes=5 / b_pyramid=2 / b_adapt=2 / b_bias=0 / direct=3 / weightb=1 / open_gop=0 / weightp=2 / keyint=240 / keyint_min=23 / scenecut=40 / intra_refresh=0 / rc=2pass / mbtree=0 / bitrate=11618 / ratetol=2.0 / qcomp=0.60 / qpmin=0 / qpmax=69 / qpstep=4 / cplxblur=20.0 / qblur=0.5 / ip_ratio=1.40 / pb_ratio=1.30 / aq=2:0.70
Language : English
Default : Yes
Forced : No

Audio #1
ID : 2
Format : AC-3
Format/Info : Audio Coding 3
Mode extension : CM (complete main)
Format settings, Endianness : Big
Codec ID : A_AC3
Duration : 1 h 32 min
Bit rate mode : Constant
Bit rate : 192 kb/s
Channel(s) : 2 channels
Channel positions : Front: L R
Sampling rate : 48.0 kHz
Frame rate : 31.250 FPS (1536 spf)
Compression mode : Lossy
Stream size : 127 MiB (2%)
Title : DVO
Language : Russian
Default : No
Forced : No

Audio #2
ID : 3
Format : AC-3
Format/Info : Audio Coding 3
Mode extension : CM (complete main)
Format settings, Endianness : Big
Codec ID : A_AC3
Duration : 1 h 32 min
Bit rate mode : Constant
Bit rate : 192 kb/s
Channel(s) : 1 channel
Channel positions : Front: C
Sampling rate : 48.0 kHz
Frame rate : 31.250 FPS (1536 spf)
Compression mode : Lossy
Stream size : 127 MiB (2%)
Title : Eng
Language : English
Default : Yes
Forced : No

Text #1
ID : 4
Format : UTF-8
Codec ID : S_TEXT/UTF8
Codec ID/Info : UTF-8 Plain Text
Title : Rus full
Language : Russian
Default : No
Forced : No

Text #2
ID : 5
Format : UTF-8
Codec ID : S_TEXT/UTF8
Codec ID/Info : UTF-8 Plain Text
Title : Eng full
Language : Russian
Default : No
Forced : No

Menu
00:00:00.000 : en:00:00:00.000
00:01:22.082 : en:00:01:22.082
00:04:11.918 : en:00:04:11.918
00:08:36.015 : en:00:08:36.015
00:10:18.868 : en:00:10:18.868
00:13:44.365 : en:00:13:44.365
00:16:48.174 : en:00:16:48.174
00:19:01.349 : en:00:19:01.349
00:22:52.371 : en:00:22:52.371
00:24:29.134 : en:00:24:29.134
00:27:29.273 : en:00:27:29.273
00:31:19.586 : en:00:31:19.586
00:34:56.428 : en:00:34:56.428
00:37:45.597 : en:00:37:45.597
00:42:17.702 : en:00:42:17.702
00:46:13.813 : en:00:46:13.813
00:48:04.507 : en:00:48:04.507
00:53:35.838 : en:00:53:35.838
00:58:30.632 : en:00:58:30.632
01:01:38.403 : en:01:01:38.403
01:04:26.988 : en:01:04:26.988
01:06:40.788 : en:01:06:40.788
01:08:25.601 : en:01:08:25.601
01:10:36.441 : en:01:10:36.441
01:13:44.253 : en:01:13:44.253
01:16:50.147 : en:01:16:50.147
01:21:17.998 : en:01:21:17.998
01:25:48.894 : en:01:25:48.894
01:27:54.978 : en:01:27:54.978
01:30:44.939 : en:01:30:44.939

pb.wtf



Скачать Они через торрент http://img11.lostpic.net/2017/02/05/5d85bcec0901d98e143bcfc1a43d04a7.png Скачать фильм Они через торрент бесплантно в хорошем качестве В ролях: Джеймс Уитмор, Эдмунд Гвенн, Джоан Уэлдон, Джеймс Арнесс, Онслоу Стивенс, Шон МакКлори, Крис Дрэйк, Сэнди Десчер, Мэри Алан ... 10 10 1
Info! Золотая раздача, скачанное не засчитывается.
Торрент: Зарегистрирован [2017-02-05 08:29] · скачан: 13 раз
Статус: √ проверено
Размер: 7.76 GB
Как cкачать? Как скачать Они через торрент | qTorrent

% Раздел Тема Автор DL S | L
Фильмы до 2000 г. [ 1.45 GB ] Колония / Double Team [1997 HDRip] DUB bober100 Скачать
1 | 1
Ultra HD (UHD: 2K, 4K, 8K) — видео сверхвысокой чёткости [ 57.5 GB ] Фантастические твари и где они обитают / Fantastic Beasts and Where to Find Them [2016 UHD BDRemux 2160p] DUB [] + 2xAVO sheker187 Скачать
1 | 0
Фильмы (HD 720p, 1080p) (48-60 fps) [ 4.31 GB ] Фантастические твари и где они обитают / Fantastic Beasts and Where to Find Them [2016 BDRip 720p 60 fps от еnvy / NNNB] DUB / еnvy Скачать
33 | 1
Фильмы [HD 720p, 1080p] (Хороший звук DUB, MVO) [ 7.72 GB ] Фантастические твари и где они обитают / Fantastic Beasts and Where to Find Them [2016 BDRip 1080p от еnvy / NNNB] DUB / еnvy Скачать
75 | 1
Ultra HD (UHD: 2K, 4K, 8K) — видео сверхвысокой чёткости [ 31.88 GB ] Фантастические твари и где они обитают / Fantastic Beasts and Where to Find Them [2016 UHD BDRip 2160p] DUB sheker187 Скачать
2 | 0
Ultra HD (UHD: 2K, 4K, 8K) — видео сверхвысокой чёткости [ 50.86 GB ] Фантастические твари и где они обитают / Fantastic Beasts and Where to Find Them [2016 экранизация UHD BDRemux 2160p] DUB [] bober100 Скачать
1 | 0
T Релизы по Парсеру [Игры, Сериалы и Фильмы и другое...] [ 46.44 GB ] Фантастические твари и где они обитают / Fantastic Beasts and Where to Find Them [2016 Blu-Ray 1080p] [] + [Sub] SEVMASH Скачать
1 | 0

28-11-2019 20:33  

Отключить всю рекламу на сайте

    Дорогой пользователь! Огромная просьба, поблагодарите релизера, оцените раздачу и оставьте свои комментарий, если Вы скачали Они через торрент бесплатно! Внесите свою лепту в развитие PiratBit!
    Комментировать посты могут только пользователи прошедшие не сложную регистрацию
    Показать сообщения:    

    Они через торрент
    Скачать бесплатно Они
    Они скачать торрент
    Они смотреть онлайн
    Cкачать фильм Они бесплатно
    Они скачать торрент в хорошем качестве
    Они смотреть онлайн бесплатно в хорошем качестве


    Вы не можете начинать темы
    Вы не можете отвечать на сообщения
    Вы не можете редактировать свои сообщения
    Вы не можете удалять свои сообщения
    Вы не можете голосовать в опросах
    Вы не можете прикреплять файлы к сообщениям
    Вы можете скачивать файлы