Ссылка на приватное зеркало всего за 1$. Внимание количество ограничено!!!

iTunes

1+1

iTunes

мы

MV0

1

WEB-DLRip

Джокер

Пифагор

Ведьмак / The Witcher сериал

iTunes

ПШазам

iTunes

Оно 2

iTunes

30
pack

Вам бонус

ВАЖНО

!!Акция!!

Alien_RageХит недели

RePack

Resident Evil 21

ИГРА 18+

pack

RePack

jed

!!Акция!!

Alien_Rage

RePack

fifa19

RePack

Assassins Creed: Odyssey

RePack

NEED FOR SPEED™ PAYBACK

4 сезон

9 сезон

Бесстыжие 9 сезон

Все сериалы

все сериалы на PB.wtf

RePack

FAR CRY 5
  

Дорогой ценой (Марк Донской) [1957, СССР, драма, SATRip от AVP Studio] pb.wtf

Дорогой ценой через торрент pb.wtf

Размер: 748 MB | Добавлен: 3 года назад | Торрент скачан:8 раз
Скачать  

05-02-2017 08:40 Дорогой ценой Скачать торрент  

Дорогой ценой
Страна: СССР
Производство: Киевская киностудия им. А. Довженко

Жанр: драма
Год выпуска: 1957
Продолжительность: 01:31:52

Перевод: Не требуется
Cубтитры: нет
Оригинальная аудиодорожка: русский

Режиссер: Марк Донской

В ролях:
Вера Донская-Присяжнюк, Юрий Дедович, Иван Твердохлеб, Ольга Петрова, Сергей Шишков, Мария Скворцова, Павел Шпрингфельд...
Об актёрах подробней

Описание:
По одноименной повести Михаила Коцюбинского.
30-е годы XVIII века. По воле пана крепостную крестьянку красавицу Соломию выдают замуж за гайдука. Остап, ее возлюбленный, бежит за Дунай, а вслед за ним из-под венца бежит и Соломия. Шальная пуля тяжело ранит Остапа. Множество бед и гонений пришлось им пережить, погибнет в неравном бою Соломия, но придет время - и старый Остап поведает людям историю своей неугасшей любви.

Источник: DVB
Качество видео: SATRip
Формат видео: AVI

Видео: 576x432 (4:3), 25 fps, XviD ~ 997 kbps avg, 0.160 bit/pixel
Аудио: 48 kHz, MP3 2.0, 128 kbps

Раздача от:
Общее
Полное имя : Dorogoy.cenoy.SATRip-745_[New-team]_by_AVP_Studio.avi
Формат : AVI
Формат/Информация : Audio Video Interleave
Размер файла : 748 Мбайт
Продолжительность : 1 ч. 31 м.
Общий поток : 1138 Кбит/сек

Видео
Идентификатор : 0
Формат : MPEG-4 Visual
Профиль формата : Advanced Simple@L5
Параметр BVOP формата : 1
Параметр QPel формата : Нет
Параметр GMC формата : Без точки перехода
Параметр матрицы формата : Выборочная
Идентификатор кодека : XVID
Идентификатор кодека/Подсказка : XviD
Продолжительность : 1 ч. 31 м.
Битрейт : 997 Кбит/сек
Ширина : 576 пикселей
Высота : 432 пикселя
Соотношение сторон : 4:3
Частота кадров : 25,000 кадров/сек
Цветовое пространство : YUV
Субдискретизация насыщенности : 4:2:0
Битовая глубина : 8 бит
Тип развёртки : Прогрессивная
Метод сжатия : С потерями
Бит/(Пиксели*Кадры) : 0.160
Размер потока : 655 Мбайт (88%)
Библиотека кодирования : XviD 73

Аудио
Идентификатор : 1
Формат : MPEG Audio
Версия формата : Version 1
Профиль формата : Layer 3
Режим : Joint stereo
Расширение режима : MS Stereo
Идентификатор кодека : 55
Идентификатор кодека/Подсказка : MP3
Продолжительность : 55 м. 7 с.
Продолжительность оригинала : 1 ч. 31 м.
Вид битрейта : Постоянный
Битрейт : 128 Кбит/сек
Каналы : 2 канала
Частота : 48,0 КГц
Метод сжатия : С потерями
Размер потока : 84,1 Мбайт (11%)
Выравнивание : Соединение по промежуткам
Продолжительность промежутка : 24 мс. (0,60 видеокадр)
pb.wtf



Скачать Дорогой ценой через торрент http://s020.radikal.ru/i703/1702/ad/c5f66ba9ae9b.png Скачать фильм Дорогой ценой через торрент бесплантно в хорошем качестве Описание:По одноименной повести Михаила Коцюбинского.30-е годы XVIII века. По воле пана крепостную крестьянку красавицу Соломию выдают ... 10 10 1
Info! Золотая раздача, скачанное не засчитывается.
Торрент: Зарегистрирован [2017-02-05 08:40] · скачан: 8 раз
Статус: √ проверено
Размер: 748 MB
Как cкачать? Как скачать Дорогой ценой через торрент | qTorrent

% Раздел Тема Автор DL S | L
Кино СССР [ 1.46 GB ] Дорогой ценой [1957 СССР SATRip-AVC от AVP Studio] AVP Studio Скачать
1 | 0
Кино СССР [ 1.46 GB ] Дорогой ценой [1957 СССР SATRip от AVP Studio] AVP Studio Скачать
1 | 0

28-11-2019 20:33  

Отключить всю рекламу на сайте

    Дорогой пользователь! Огромная просьба, поблагодарите релизера, оцените раздачу и оставьте свои комментарий, если Вы скачали Дорогой ценой через торрент бесплатно! Внесите свою лепту в развитие PiratBit!
    Комментировать посты могут только пользователи прошедшие не сложную регистрацию
    Показать сообщения:    

    Дорогой ценой через торрент
    Скачать бесплатно Дорогой ценой
    Дорогой ценой скачать торрент
    Дорогой ценой смотреть онлайн
    Cкачать фильм Дорогой ценой бесплатно
    Дорогой ценой скачать торрент в хорошем качестве
    Дорогой ценой смотреть онлайн бесплатно в хорошем качестве


    Вы не можете начинать темы
    Вы не можете отвечать на сообщения
    Вы не можете редактировать свои сообщения
    Вы не можете удалять свои сообщения
    Вы не можете голосовать в опросах
    Вы не можете прикреплять файлы к сообщениям
    Вы можете скачивать файлы