Лицензия

MVO

1

1 сезон

Лицензия

Лицензия

13

MVO

1 сезон

Deluxe Edition

pack

Рекомендуем

30

Repack

ВАЖНО

ВАЖНО

Ghostwire

RePack

jed

RePack

fifa19

RePack

RDR2

RePack

NEED FOR SPEED™ PAYBACK

RePack

Кинопоиск HD

 Острые козырьки 6 сезон

6 сезон

FAR CRY 6

RePack

Лицензия

MVO

1

1 сезон

1 сезон

Лицензия

  

Луна 2112 / Moon (Дункан Джонс) [2009, фантастика, драма, детектив, BDRip 1080p] RUS (2х MVO, 2x AVO) + UKR (DUB, MVO) + Original ENG + SUB

Луна 2112 через торрент pb.wtf

Размер: 12.81 GB | Добавлен: 5 лет 7 мес. назад | Торрент скачан:689 раз
Смотреть онлайн Луна 2112 | Скачать   

05-02-2017 16:43 Луна 2112 Скачать торрент  

Луна 2112 / Moon

Год выпуска: 2009
Страна: Великобритания
Жанр: фантастика, драма, детектив

Продолжительность: 01:37:09
Перевод: Профессиональный (многоголосый, закадровый), Авторский (одноголосый, закадровый), Дублированный
Субтитры: русские, украинские, английские, венгерские
Режиссер: Дункан Джонс
В ролях:

Сэм Рокуэлл (Sam Bell), Кевин Спейси (GERTY, озвучка), Доминик МакЭллигот (Tess Bell), Рози Шоу (Little Eve), Эдриэнн Шоу (Nanny), Кая Скоделарио (Eve), Бенедикт Вонг (Thompson), Мэтт Берри (Overmeyers), Малкольм Стюарт (Technician), Робин Чок (Sam Bell Clone), Гэвин Ротери (Eliza Rescue Captain, в титрах не указан)
Описание:
Контракт Сэма подходит к концу: он провел три года на Луне, следя за автоматизированной станцией по добыче редкого газа. Три долгих года в полном одиночестве, если не считать говорящего робота ГЕРТИ, могут изменить любого. За две недели до возвращения на Землю Сэм встречает своего сменщика...
Рейтинг:

MPAA: R - Лицам до 17 лет обязательно присутствие взрослого
Качество: BDRip 1080p
Формат: MKV
Видео: AVC, 1920x800 (2.40:1), 14000 kbps, 23,976 fps, 0,380 bpp
Аудио №1: русский / DTS / 5.1 / 48 kHz / 1509 kbps / 24 bit |MVO СР-Digital|
Аудио №2: русский / AC3 / 2.0 / 48 kHz / 192 kbps / |MVO ТВ3|
Аудио №3: русский / AC3 / 5.1 / 48 kHz / 448 kbps / |AVO Гаврилов|
Аудио №4: русский / AC3 / 5.1 / 48 kHz / 448 kbps / |AVO Немахов|
Аудио №5: украинский / AC3 / 5.1 / 48 kHz / 192 kbps / |DUB|
Аудио №6: украинский / AC3 / 2.0 / 48 kHz / 192 kbps / |MVO Три Крапки|
Аудио №7: английский / DTS / 5.1 / 48 kHz / 1509 kbps / 24 bit |Оригинал|
Аудио №8: английский / AC3 / 2.0 / 48 kHz / 192 kbps / |комментарии №1|
Аудио №9: английский / AC3 / 2.0 / 48 kHz / 192 kbps / |комментарии №2|
Навигация по главам: есть
Релиз от:
General
Unique ID : 191780182515399626250645330927325809849 (0x904785061EEBB5EFBF039B312FBC0CB9)
Complete name : E:\Moon.2009.1080p.BluRay.4xRus.2xUkr.3xEng.HDCLUB.mkv
Format : Matroska
Format version : Version 2
File size : 12.8 GiB
Duration : 1 h 37 min
Overall bit rate : 18.9 Mb/s
Movie name : Moon (2009) - Release for HDCLUB
Encoded date : UTC 2016-01-12 21:29:46
Writing application : mkvmerge v5.7.0 ('The Whirlwind') built on Jul 8 2012 20:08:51
Writing library : libebml v1.2.3 + libmatroska v1.3.0

Video
ID : 1
Format : AVC
Format/Info : Advanced Video Codec
Format profile : [email protected]
Format settings, CABAC : Yes
Format settings, ReFrames : 5 frames
Codec ID : V_MPEG4/ISO/AVC
Duration : 1 h 37 min
Bit rate : 14.0 Mb/s
Width : 1 920 pixels
Height : 800 pixels
Display aspect ratio : 2.40:1
Frame rate mode : Constant
Frame rate : 23.976 (24000/1001) FPS
Color space : YUV
Chroma subsampling : 4:2:0
Bit depth : 8 bits
Scan type : Progressive
Bits/(Pixel*Frame) : 0.380
Stream size : 9.25 GiB (72%)
Writing library : x264 core 144 r2525 40bb568
Encoding settings : cabac=1 / ref=5 / deblock=1:-3:-3 / analyse=0x3:0x113 / me=umh / subme=10 / psy=1 / psy_rd=1.00:0.00 / mixed_ref=1 / me_range=32 / chroma_me=1 / trellis=2 / 8x8dct=1 / cqm=1 / deadzone=21,11 / fast_pskip=0 / chroma_qp_offset=-1 / threads=6 / lookahead_threads=1 / sliced_threads=0 / nr=0 / decimate=1 / interlaced=0 / bluray_compat=0 / constrained_intra=0 / bframes=8 / b_pyramid=2 / b_adapt=2 / b_bias=0 / direct=3 / weightb=1 / open_gop=0 / weightp=2 / keyint=230 / keyint_min=23 / scenecut=40 / intra_refresh=0 / rc_lookahead=40 / rc=2pass / mbtree=0 / bitrate=14000 / ratetol=1.0 / qcomp=0.40 / qpmin=2 / qpmax=69 / qpstep=4 / cplxblur=20.0 / qblur=0.5 / vbv_maxrate=62500 / vbv_bufsize=78125 / nal_hrd=none / filler=0 / ip_ratio=1.00 / pb_ratio=1.00 / aq=3:0.60 / zones=266,540,b=2/2056,2203,b=2.1/2704,3737,b=1.8/5155,5384,b=1.4/6560,6694,b=1.3/7198,7314,b=3.1/10097,10126,b=1.3/10716,10800,b=1.7/23961,24028,b=2.2/24490,25199,b=1.8/32469,32612,b=1.5/33715,33955,b=1.9/37904,38348,b=1.4/100945,101202,b=1.9/130782,130813,b=2/133705,139775,b=0.10
Language : English
Default : Yes
Forced : No

Audio #1
ID : 2
Format : DTS
Format/Info : Digital Theater Systems
Mode : 16
Format settings, Endianness : Big
Codec ID : A_DTS
Duration : 1 h 37 min
Bit rate mode : Constant
Bit rate : 1 510 kb/s
Channel(s) : 6 channels
Channel positions : Front: L C R, Side: L R, LFE
Sampling rate : 48.0 kHz
Frame rate : 93.750 FPS (512 spf)
Bit depth : 24 bits
Compression mode : Lossy
Stream size : 1.02 GiB (8%)
Title : |Многоголосый закадровый, СР-Digital|
Language : Russian
Default : Yes
Forced : No

Audio #2
ID : 3
Format : AC-3
Format/Info : Audio Coding 3
Mode extension : CM (complete main)
Format settings, Endianness : Big
Codec ID : A_AC3
Duration : 1 h 37 min
Bit rate mode : Constant
Bit rate : 192 kb/s
Channel(s) : 2 channels
Channel positions : Front: L R
Sampling rate : 48.0 kHz
Frame rate : 31.250 FPS (1536 spf)
Compression mode : Lossy
Stream size : 133 MiB (1%)
Title : |Многоголосый закадровый, ТВ3|
Language : Russian
Default : No
Forced : No

Audio #3
ID : 4
Format : AC-3
Format/Info : Audio Coding 3
Mode extension : CM (complete main)
Format settings, Endianness : Big
Codec ID : A_AC3
Duration : 1 h 37 min
Bit rate mode : Constant
Bit rate : 448 kb/s
Channel(s) : 6 channels
Channel positions : Front: L C R, Side: L R, LFE
Sampling rate : 48.0 kHz
Frame rate : 31.250 FPS (1536 spf)
Compression mode : Lossy
Stream size : 311 MiB (2%)
Title : |Одноголосый закадровый, А.Гаврилов|
Language : Russian
Default : No
Forced : No

Audio #4
ID : 5
Format : AC-3
Format/Info : Audio Coding 3
Mode extension : CM (complete main)
Format settings, Endianness : Big
Codec ID : A_AC3
Duration : 1 h 37 min
Bit rate mode : Constant
Bit rate : 448 kb/s
Channel(s) : 6 channels
Channel positions : Front: L C R, Side: L R, LFE
Sampling rate : 48.0 kHz
Frame rate : 31.250 FPS (1536 spf)
Compression mode : Lossy
Stream size : 311 MiB (2%)
Title : |Одноголосый закадровый, Ю.Немахов|
Language : Russian
Default : No
Forced : No

Audio #5
ID : 6
Format : AC-3
Format/Info : Audio Coding 3
Mode extension : CM (complete main)
Format settings, Endianness : Big
Codec ID : A_AC3
Duration : 1 h 37 min
Bit rate mode : Constant
Bit rate : 192 kb/s
Channel(s) : 6 channels
Channel positions : Front: L C R, Side: L R, LFE
Sampling rate : 48.0 kHz
Frame rate : 31.250 FPS (1536 spf)
Compression mode : Lossy
Stream size : 133 MiB (1%)
Title : |Дубляж|
Language : Ukrainian
Default : No
Forced : No

Audio #6
ID : 7
Format : AC-3
Format/Info : Audio Coding 3
Mode extension : CM (complete main)
Format settings, Endianness : Big
Codec ID : A_AC3
Duration : 1 h 37 min
Bit rate mode : Constant
Bit rate : 192 kb/s
Channel(s) : 2 channels
Channel positions : Front: L R
Sampling rate : 48.0 kHz
Frame rate : 31.250 FPS (1536 spf)
Compression mode : Lossy
Stream size : 133 MiB (1%)
Title : |Многоголосый закадровый, Три Крапки|
Language : Ukrainian
Default : No
Forced : No

Audio #7
ID : 8
Format : DTS
Format/Info : Digital Theater Systems
Mode : 16
Format settings, Endianness : Big
Codec ID : A_DTS
Duration : 1 h 37 min
Bit rate mode : Constant
Bit rate : 1 509 kb/s
Channel(s) : 6 channels
Channel positions : Front: L C R, Side: L R, LFE
Sampling rate : 48.0 kHz
Frame rate : 93.750 FPS (512 spf)
Bit depth : 24 bits
Compression mode : Lossy
Stream size : 1.02 GiB (8%)
Language : English
Default : No
Forced : No

Audio #8
ID : 9
Format : AC-3
Format/Info : Audio Coding 3
Format profile : Dolby Digital
Mode extension : CM (complete main)
Format settings, Endianness : Big
Codec ID : A_AC3
Duration : 1 h 37 min
Bit rate mode : Constant
Bit rate : 192 kb/s
Channel(s) : 2 channels
Channel positions : Front: L R
Sampling rate : 48.0 kHz
Frame rate : 31.250 FPS (1536 spf)
Compression mode : Lossy
Stream size : 133 MiB (1%)
Title : Commentary #1
Language : English
Default : No
Forced : No

Audio #9
ID : 10
Format : AC-3
Format/Info : Audio Coding 3
Format profile : Dolby Digital
Mode extension : CM (complete main)
Format settings, Endianness : Big
Codec ID : A_AC3
Duration : 1 h 37 min
Bit rate mode : Constant
Bit rate : 192 kb/s
Channel(s) : 2 channels
Channel positions : Front: L R
Sampling rate : 48.0 kHz
Frame rate : 31.250 FPS (1536 spf)
Compression mode : Lossy
Stream size : 133 MiB (1%)
Title : Commentary #2
Language : English
Default : No
Forced : No

Text #1
ID : 11
Format : UTF-8
Codec ID : S_TEXT/UTF8
Codec ID/Info : UTF-8 Plain Text
Language : Russian
Default : No
Forced : No

Text #2
ID : 12
Format : UTF-8
Codec ID : S_TEXT/UTF8
Codec ID/Info : UTF-8 Plain Text
Language : Ukrainian
Default : No
Forced : No

Text #3
ID : 13
Format : UTF-8
Codec ID : S_TEXT/UTF8
Codec ID/Info : UTF-8 Plain Text
Language : English
Default : No
Forced : No

Text #4
ID : 14
Format : UTF-8
Codec ID : S_TEXT/UTF8
Codec ID/Info : UTF-8 Plain Text
Language : Hungarian
Default : No
Forced : No

Menu
00:00:00.000 : en:1.
00:05:41.966 : en:2.
00:11:05.164 : en:3.
00:18:00.954 : en:4.
00:22:58.835 : en:5.
00:28:47.976 : en:6.
00:34:35.907 : en:7.
00:42:52.987 : en:8.
00:47:28.011 : en:9.
00:54:35.939 : en:10.
01:01:55.211 : en:11.
01:07:38.220 : en:12.
01:13:15.182 : en:13.
01:16:49.938 : en:14.
01:22:32.656 : en:15.
01:30:40.143 : en:16.



Скачать Луна 2112 через торрент http://i1-imageban-ru.translate.goog/out/2017/02/05/c77ff742912232c389332e17c5b83f75.jpg Скачать, смотреть онлайн Луна 2112 бесплантно в хорошем качестве Описание: Контракт Сэма подходит к концу: он провел три года на Луне, следя за автоматизированной станцией по добыче редкого газа. Три ... 9.3 10 21
Info! Золотая раздача, скачанное не засчитывается.
Торрент: Зарегистрирован [2017-02-05 16:43] · скачан: 689 раз
Статус: √ проверено
Размер: 12.81 GB
Как cкачать? Как скачать Луна 2112 через торрент | UTorrent

% Раздел Тема Автор DL S | L
Фильмы (Blu-ray, BD-Remux, HDDVD) [ 18.79 GB ] Луна 2112 / Moonrise Kingdom | MVO | BDRemux AlexKa Скачать
1 | 0

28-11-2019 20:33  

Отключить вcю реклaмy на сайте

05-02-2017 17:40 Луна 2112 Скачать торрент  

Когдато смотрел этот фильм. Мне понравился, обязательно пересмотрю.



10-02-2017 14:02 Луна 2112 Скачать торрент  

Первый скрин практически рассказал,о чём фильм)))



11-02-2017 01:51 Луна 2112 Скачать торрент  

Хороший фильм.



    Дорогой пользователь! Огромная просьба, поблагодарите релизера, оцените раздачу и оставьте свои комментарий, если Вы скачали Луна 2112 через торрент бесплатно!!
    Комментировать посты могут только пользователи прошедшие не сложную регистрацию
    Показать сообщения:    


    Луна 2112 через торрент
    Скачать бесплатно Луна 2112
    Луна 2112 скачать торрент
    Луна 2112 смотреть онлайн
    Cкачать фильм Луна 2112 бесплатно
    Луна 2112 скачать торрент в хорошем качестве
    Луна 2112 смотреть онлайн бесплатно в хорошем качестве
    Вы не можете начинать темы
    Вы не можете отвечать на сообщения
    Вы не можете редактировать свои сообщения
    Вы не можете удалять свои сообщения
    Вы не можете голосовать в опросах
    Вы не можете прикреплять файлы к сообщениям
    Вы можете скачивать файлы