Ссылка на приватное зеркало нашего сайта всего за 1$. Внимание количество ограничено!!!

2 сезон

iTunes

1 сезон

1

iTunes

iTunes

iTunes

1 сезон

RePack

30

ИГРА 18+

pack

ВАЖНО

!!Акция!!

Alien_RageХит недели

RePack

MK11
pack

Забери бонус

RePack

jed

!!Акция!!

Alien_Rage

RePack

fifa19

RePack

Assassins Creed: Odyssey

RePack

NEED FOR SPEED™ PAYBACK

4 сезон

9 сезон

Бесстыжие 9 сезон

Все сериалы

все сериалы на PB.wtf

RePack

FAR CRY 5
  

Окулус / Oculus (Майк Флэнеган) [2013, ужасы, триллер, BDRip 720p by msltel] DUB pb.wtf

Окулус через торрент pb.wtf

Размер: 3.3 GB | Добавлен: 3 года 8 мес. назад | Торрент скачан:97 раз
Скачать  

06-02-2017 13:51 Окулус Скачать торрент  

Название: Окулус
Оригинальное название: Oculus
Год выпуска: 2013
Страна: СЩА
Жанр: ужасы, триллер
Продолжительность: 01:44:03
Перевод: дублированный

Режиссёр: Майк Флэнеган

В ролях: Карен Гиллан, Брентон Туэйтес, Кэти Сакхофф, Рори Кокрейн, Анналиса Бассо, Гаррет Райан, Джеймс Лэфферти, Мигель Сандовал, Кейт Сигел, Скотт Грэхэм

Описание: Смерть родителей сильно повлияла на судьбу двух осиротевших детей. По прошествии времени, в двадцатилетнем возрасте, сестра всё ещё продолжает так считать и хочет доказать брату, что привидение, вышедшее из зеркала, стало причиной гибели близких людей и всех случившихся последующих бед…



Качество: BDRip 720p
Формат: MKV
Видео: MPEG-4 AVC, 3646 Кбит/с, 1280x534, 23,976 кадра/с
Аудио 1: русский, AC3, 448 kbps, 6 ch, 48 kHz [дублированный, Лицензия R5 от «CD Land»]
Аудио 2: английский, AC3, 448 kbps, 6 ch, 48 kHz [оригинал]
Субтитры: английские (для слабослышащих)
Имеются неименованные главы/чаптеры.
frame I:1389 Avg QP:13.97 size:103153
frame P:27825 Avg QP:15.29 size: 42027
frame B:120474 Avg QP:17.24 size: 12723
Общее
Уникальный идентификатор : 191110986822855774342424986349906290591 (0x8FC6A321010F708FBDE4A7C242E5E79F)
Полное имя : D:\Video\Oculus.2013.BDRip.720p by msltel.mkv
Формат : Matroska
Версия формата : Version 4 / Version 2
Размер файла : 3,30 Гбайт
Продолжительность : 1 ч. 44 м.
Общий поток : 4540 Кбит/сек
Название фильма : Rip by msltel
Дата кодирования : UTC 2017-02-05 11:33:58
Программа кодирования : mkvmerge v8.2.0 ('World of Adventure') 64bit
Библиотека кодирования : libebml v1.3.1 + libmatroska v1.4.2

Видео
Идентификатор : 1
Формат : AVC
Формат/Информация : Advanced Video Codec
Профиль формата : High@L4.1
Параметр CABAC формата : Да
Параметр ReFrames формата : 9 кадров
Идентификатор кодека : V_MPEG4/ISO/AVC
Продолжительность : 1 ч. 44 м.
Битрейт : 3646 Кбит/сек
Ширина : 1280 пикселей
Высота : 534 пикселя
Соотношение сторон : 2,40:1
Режим частоты кадров : Постоянный
Частота кадров : 23,976 (24000/1001) кадра/сек
Цветовое пространство : YUV
Субдискретизация насыщенности : 4:2:0
Битовая глубина : 8 бит
Тип развёртки : Прогрессивная
Бит/(Пиксели*Кадры) : 0.222
Размер потока : 2,65 Гбайт (80%)
Библиотека кодирования : x264 core 146 r2538 121396c
Настройки программы : cabac=1 / ref=9 / deblock=1:-2:-2 / analyse=0x3:0x113 / me=umh / subme=11 / psy=1 / psy_rd=1.00:0.15 / mixed_ref=1 / me_range=32 / chroma_me=1 / trellis=2 / 8x8dct=1 / cqm=0 / deadzone=21,11 / fast_pskip=0 / chroma_qp_offset=-3 / threads=6 / lookahead_threads=1 / sliced_threads=0 / nr=0 / decimate=1 / interlaced=0 / bluray_compat=0 / constrained_intra=0 / bframes=8 / b_pyramid=2 / b_adapt=2 / b_bias=0 / direct=1 / weightb=1 / open_gop=0 / weightp=2 / keyint=230 / keyint_min=23 / scenecut=40 / intra_refresh=0 / rc_lookahead=40 / rc=crf / mbtree=0 / crf=18.0 / qcomp=0.60 / qpmin=0 / qpmax=69 / qpstep=4 / vbv_maxrate=62500 / vbv_bufsize=78125 / crf_max=0.0 / nal_hrd=none / filler=0 / ip_ratio=1.40 / pb_ratio=1.30 / aq=1:1.00
Язык : English
Default : Да
Forced : Нет

Аудио #1
Идентификатор : 2
Формат : AC-3
Формат/Информация : Audio Coding 3
Расширение режима : CM (complete main)
Параметр Endianness формата : Big
Идентификатор кодека : A_AC3
Продолжительность : 1 ч. 42 м.
Вид битрейта : Постоянный
Битрейт : 448 Кбит/сек
Каналы : 6 каналов
Расположение каналов : Front: L C R, Side: L R, LFE
Частота : 48,0 КГц
Частота кадров : 31,250 кадров/сек (1536 spf)
Битовая глубина : 16 бит
Метод сжатия : С потерями
Размер потока : 330 Мбайт (10%)
Заголовок : DUB (Лицензия R5 от «CD Land»)
Язык : Russian
Default : Да
Forced : Нет

Аудио #2
Идентификатор : 3
Формат : AC-3
Формат/Информация : Audio Coding 3
Расширение режима : CM (complete main)
Параметр Endianness формата : Big
Идентификатор кодека : A_AC3
Продолжительность : 1 ч. 44 м.
Вид битрейта : Постоянный
Битрейт : 448 Кбит/сек
Каналы : 6 каналов
Расположение каналов : Front: L C R, Side: L R, LFE
Частота : 48,0 КГц
Частота кадров : 31,250 кадров/сек (1536 spf)
Битовая глубина : 16 бит
Метод сжатия : С потерями
Размер потока : 333 Мбайт (10%)
Заголовок : original
Язык : English
Default : Нет
Forced : Нет

Текст
Идентификатор : 4
Формат : UTF-8
Идентификатор кодека : S_TEXT/UTF8
Идентификатор кодека/Информация : UTF-8 Plain Text
Продолжительность : 1 ч. 42 м.
Битрейт : 46 бит/сек
Count of elements : 1106
Размер потока : 35,0 Кбайт (0%)
Заголовок : английские (для слабослышащих)
Язык : English
Default : Нет
Forced : Нет

Меню
00:00:00.000 : :Chapter 01
00:03:10.690 : :Chapter 02
00:07:26.570 : :Chapter 03
00:12:32.751 : :Chapter 04
00:14:41.880 : :Chapter 05
00:19:54.318 : :Chapter 06
00:24:35.056 : :Chapter 07
00:30:56.396 : :Chapter 08
00:34:01.414 : :Chapter 09
00:39:20.149 : :Chapter 10
00:42:50.109 : :Chapter 11
00:46:09.933 : :Chapter 12
00:51:21.411 : :Chapter 13
00:54:53.581 : :Chapter 14
00:57:14.389 : :Chapter 15
01:01:54.252 : :Chapter 16
01:08:05.539 : :Chapter 17
01:11:46.593 : :Chapter 18
01:14:19.496 : :Chapter 19
01:19:14.750 : :Chapter 20
01:23:16.700 : :Chapter 21
01:28:45.236 : :Chapter 22
01:34:24.617 : :Chapter 23
01:37:17.997 : :Chapter 24
01:44:03.028 : :Chapter 25
pb.wtf



Скачать Окулус через торрент http://i069.radikal.ru/1702/d9/539475602bed.jpg Скачать фильм Окулус через торрент бесплантно в хорошем качестве Описание: Смерть родителей сильно повлияла на судьбу двух осиротевших детей. По прошествии времени, в двадцатилетнем возрасте, сестра всё ... 10 10 5
Info! Золотая раздача, скачанное не засчитывается.
Торрент: Зарегистрирован [2017-02-06 13:51] · скачан: 97 раз
Статус: √ проверено
Размер: 3.3 GB
Как cкачать? Как скачать Окулус через торрент | qTorrent

% Раздел Тема Автор DL S | L
Фильмы [HD 720p, 1080p] (Хороший звук DUB, MVO) [ 10.06 GB ] Окулус / Oculus [2013 BDRip 1080p by msltel] DUB msltel Скачать
1 | 0
Фильмы 2013 [DVDrip, WEB-DLRip, HDrip] [ 2.18 GB ] Окулус / Oculus [2013 BDRip-AVC от sokol_ok] Dub sokol_ok Скачать
2 | 0
Фильмы 2013 [DVDrip, WEB-DLRip, HDrip] [ 1.45 GB ] Окулус / Oculus [2013 BDRip-AVC от sokol_ok] Dub sokol_ok Скачать
2 | 0
Фильмы [HD 720p, 1080p] (Хороший звук DUB, MVO) [ 7.74 GB ] Окулус / Oculus [2013 BDRip 1080p] DUB / еnvy Скачать
1 | 0
Фильмы (Blu-ray, BD-Remux, HDDVD) [ 35.61 GB ] Окулус / Oculus [2013 BluRay 1080p] +[Eng] killermax2013 Скачать
1 | 0

28-11-2019 20:33  

Отключить всю рекламу на сайте

    Дорогой пользователь! Огромная просьба, поблагодарите релизера, оцените раздачу и оставьте свои комментарий, если Вы скачали Окулус через торрент бесплатно! Внесите свою лепту в развитие PiratBit!
    Комментировать посты могут только пользователи прошедшие не сложную регистрацию
    Показать сообщения:    

    Окулус через торрент
    Скачать бесплатно Окулус
    Окулус скачать торрент
    Окулус смотреть онлайн
    Cкачать фильм Окулус бесплатно
    Окулус скачать торрент в хорошем качестве
    Окулус смотреть онлайн бесплатно в хорошем качестве


    Вы не можете начинать темы
    Вы не можете отвечать на сообщения
    Вы не можете редактировать свои сообщения
    Вы не можете удалять свои сообщения
    Вы не можете голосовать в опросах
    Вы не можете прикреплять файлы к сообщениям
    Вы можете скачивать файлы