Доктор Стрэндж

Лицензия

Добыча

Дубляж

Уэнсдэй

1 сезон

Тор

Дубляж

В эфире

Дубляж

Там, где раки поют

MVO

Властелин колец

1 сезон

Deluxe

pack

Рекомендуем

30

Пиратка

ВАЖНО

ВАЖНО

Ghostwire

Пиратка

jed

RePack

nioh2

RePack

RDR2

RePack

NEED FOR SPEED™ PAYBACK

RePack

скачать торрент

Кинопоиск HD

Острые козырьки 6 сезон

6 сезон

FAR CRY 6

RePack

скачать торрент

Лицензия

скачать торрент

MVO

1

1 сезон

скачать торрент

1 сезон

скачать торрент

Лицензия

  

Окулус / Oculus (Майк Флэнеган) [2013, ужасы, триллер, BDRip 1080p ] Дубляж

Окулус через торрент pb.wtf

Размер: 10.06 GB | Добавлен: 5 лет 9 мес. назад | Торрент скачан:81 раз
Смотреть онлайн | Скачать   

06-02-2017 14:39 Окулус Скачать торрент  

Название: Окулус
Оригинальное название: Oculus
Год выпуска: 2013
Страна: СЩА
Жанр: ужасы, триллер
Продолжительность: 01:44:03
Перевод: дублированный

Режиссёр: Майк Флэнеган

В ролях: Карен Гиллан, Брентон Туэйтес, Кэти Сакхофф, Рори Кокрейн, Анналиса Бассо, Гаррет Райан, Джеймс Лэфферти, Мигель Сандовал, Кейт Сигел, Скотт Грэхэм

Описание: Смерть родителей сильно повлияла на судьбу двух осиротевших детей. По прошествии времени, в двадцатилетнем возрасте, сестра всё ещё продолжает так считать и хочет доказать брату, что привидение, вышедшее из зеркала, стало причиной гибели близких людей и всех случившихся последующих бед…



Качество: BDRip 1080p
Формат: MKV
Видео: MPEG-4 AVC, 11.9 Mбит/с, 1920x800, 23,976 кадра/с
Аудио 1: русский, AC3, 448 kbps, 6 ch, 48 kHz [дублированный, Лицензия R5 от «CD Land»]
Аудио 2: английский, DTS, 1509 kbps, 6 ch, 48 kHz [оригинал]
Субтитры: английские (для слабослышащих)
Имеются неименованные главы/чаптеры.
frame I:1236 Avg QP:13.95 size:228003
frame P:28128 Avg QP:15.17 size:124327
frame B:120324 Avg QP:16.95 size: 45701
Общее
Уникальный идентификатор : 244687333448711587399130676917477063205 (0xB81510F5C4783045B9CA7009934C3A25)
Полное имя : D:\Video\Oculus.2013.BDRip.1080p by msltel.mkv
Формат : Matroska
Версия формата : Version 4 / Version 2
Размер файла : 10,1 Гбайт
Продолжительность : 1 ч. 44 м.
Общий поток : 13,8 Мбит/сек
Название фильма : Rip by msltel
Дата кодирования : UTC 2017-02-06 13:06:28
Программа кодирования : mkvmerge v8.2.0 ('World of Adventure') 64bit
Библиотека кодирования : libebml v1.3.1 + libmatroska v1.4.2

Видео
Идентификатор : 1
Формат : AVC
Формат/Информация : Advanced Video Codec
Профиль формата : [email protected]
Параметр CABAC формата : Да
Параметр ReFrames формата : 4 кадра
Идентификатор кодека : V_MPEG4/ISO/AVC
Продолжительность : 1 ч. 44 м.
Битрейт : 11,9 Мбит/сек
Ширина : 1920 пикселей
Высота : 800 пикселей
Соотношение сторон : 2,40:1
Режим частоты кадров : Постоянный
Частота кадров : 23,976 (24000/1001) кадра/сек
Цветовое пространство : YUV
Субдискретизация насыщенности : 4:2:0
Битовая глубина : 8 бит
Тип развёртки : Прогрессивная
Бит/(Пиксели*Кадры) : 0.323
Размер потока : 8,64 Гбайт (86%)
Библиотека кодирования : x264 core 146 r2538 121396c
Настройки программы : cabac=1 / ref=4 / deblock=1:-3:-3 / analyse=0x3:0x113 / me=umh / subme=11 / psy=1 / psy_rd=1.00:0.15 / mixed_ref=1 / me_range=32 / chroma_me=1 / trellis=2 / 8x8dct=1 / cqm=0 / deadzone=21,11 / fast_pskip=0 / chroma_qp_offset=-3 / threads=6 / lookahead_threads=1 / sliced_threads=0 / nr=0 / decimate=1 / interlaced=0 / bluray_compat=0 / constrained_intra=0 / bframes=8 / b_pyramid=2 / b_adapt=2 / b_bias=0 / direct=1 / weightb=1 / open_gop=0 / weightp=2 / keyint=230 / keyint_min=23 / scenecut=40 / intra_refresh=0 / rc_lookahead=40 / rc=crf / mbtree=0 / crf=18.0 / qcomp=0.60 / qpmin=0 / qpmax=69 / qpstep=4 / vbv_maxrate=62500 / vbv_bufsize=78125 / crf_max=0.0 / nal_hrd=none / filler=0 / ip_ratio=1.40 / pb_ratio=1.30 / aq=1:1.00
Язык : English
Default : Да
Forced : Нет

Аудио #1
Идентификатор : 2
Формат : AC-3
Формат/Информация : Audio Coding 3
Расширение режима : CM (complete main)
Параметр Endianness формата : Big
Идентификатор кодека : A_AC3
Продолжительность : 1 ч. 42 м.
Вид битрейта : Постоянный
Битрейт : 448 Кбит/сек
Каналы : 6 каналов
Расположение каналов : Front: L C R, Side: L R, LFE
Частота : 48,0 КГц
Частота кадров : 31,250 кадров/сек (1536 spf)
Битовая глубина : 16 бит
Метод сжатия : С потерями
Размер потока : 330 Мбайт (3%)
Заголовок : Дубляж (Лицензия R5 от «CD Land»)
Язык : Russian
Default : Да
Forced : Нет

Аудио #2
Идентификатор : 3
Формат : DTS
Формат/Информация : Digital Theater Systems
Режим : 16
Параметр Endianness формата : Big
Идентификатор кодека : A_DTS
Продолжительность : 1 ч. 44 м.
Вид битрейта : Постоянный
Битрейт : 1509 Кбит/сек
Каналы : 6 каналов
Расположение каналов : Front: L C R, Side: L R, LFE
Частота : 48,0 КГц
Частота кадров : 93,750 кадра/сек (512 spf)
Битовая глубина : 24 бит
Метод сжатия : С потерями
Размер потока : 1,10 Гбайт (11%)
Заголовок : original
Язык : English
Default : Нет
Forced : Нет

Текст
Идентификатор : 4
Формат : UTF-8
Идентификатор кодека : S_TEXT/UTF8
Идентификатор кодека/Информация : UTF-8 Plain Text
Продолжительность : 1 ч. 42 м.
Битрейт : 46 бит/сек
Count of elements : 1106
Размер потока : 35,0 Кбайт (0%)
Заголовок : английские (для слабослышащих)
Язык : English
Default : Нет
Forced : Нет

Меню
00:00:00.000 : :Chapter 01
00:03:10.690 : :Chapter 02
00:07:26.570 : :Chapter 03
00:12:32.751 : :Chapter 04
00:14:41.880 : :Chapter 05
00:19:54.318 : :Chapter 06
00:24:35.056 : :Chapter 07
00:30:56.396 : :Chapter 08
00:34:01.414 : :Chapter 09
00:39:20.149 : :Chapter 10
00:42:50.109 : :Chapter 11
00:46:09.933 : :Chapter 12
00:51:21.411 : :Chapter 13
00:54:53.581 : :Chapter 14
00:57:14.389 : :Chapter 15
01:01:54.252 : :Chapter 16
01:08:05.539 : :Chapter 17
01:11:46.593 : :Chapter 18
01:14:19.496 : :Chapter 19
01:19:14.750 : :Chapter 20
01:23:16.700 : :Chapter 21
01:28:45.236 : :Chapter 22
01:34:24.617 : :Chapter 23
01:37:17.997 : :Chapter 24
01:44:03.028 : :Chapter 25



Скачать Окулус через торрент http://i069.radikal.ru/1702/d9/539475602bed.jpg Скачать, смотреть онлайн Окулус бесплантно в хорошем качестве Описание: Смерть родителей сильно повлияла на судьбу двух осиротевших детей. По прошествии времени, в двадцатилетнем возрасте, сестра всё ... 9.1 10 10
Info! Золотая раздача, скачанное не засчитывается.
Торрент: Зарегистрирован [2017-02-06 14:39] · скачан: 81 раз
Статус: √ проверено
Размер: 10.06 GB
Как cкачать? Как скачать Окулус через торрент | UTorrent

% Раздел Тема Автор DL S | L
Фильмы 2013 [DVDrip, WEB-DLRip, HDrip] [ 1.37 GB ] Окулус / Oculus | Лицензия | HDRip [Дубляж - Лицензия/ iTunes Ворон Скачать
1 | 0
Фильмы 2014 [DVDrip, WEB-DLRip, HDrip] [ 2.91 GB ] Окулус / Oculus | Лицензия | HDRip, Дубляж, Лицензия vovan Скачать
1 | 0
Фильмы (WEB-DL 720p, 1080p) [ 3.08 GB ] Окулус / Oculus | Лицензия | 720p, [Дубляж - Лицензия/ iTunes Ворон Скачать
1 | 0
Фильмы 2013 [DVDrip, WEB-DLRip, HDrip] [ 1.45 GB ] Окулус / Oculus | iTunes | HDRip-AVC, Дубляж Ворон Скачать
2 | 0
Фильмы 2013 [DVDrip, WEB-DLRip, HDrip] [ 700 MB ] Окулус / Oculus | Лицензия | DLRip,Профессиональный [Дубляж - Лицензия/ iTunes Ворон Скачать
1 | 0

28-11-2019 20:33  


Отключить вcю реклaмy на сайте, в т.ч. и в плеере онлайн просмотра!

06-02-2017 14:53 Окулус Скачать торрент  

Неужели второй части не будет, уже 4 года почти прошло, жду, надеюсь(



09-02-2017 07:29 Окулус Скачать торрент  

Рип без рекламы?Странно



    Дорогой пользователь! Огромная просьба, поблагодарите релизера, оцените раздачу и оставьте свои комментарий, если Вы скачали Окулус через торрент бесплатно!!
    Комментировать посты могут только пользователи прошедшие не сложную регистрацию
    Показать сообщения:    


    Окулус через торрент
    Скачать бесплатно Окулус
    Окулус скачать торрент
    Окулус смотреть онлайн
    Cкачать фильм Окулус бесплатно
    Окулус скачать торрент в хорошем качестве
    Окулус смотреть онлайн бесплатно в хорошем качестве
    Вы не можете начинать темы
    Вы не можете отвечать на сообщения
    Вы не можете редактировать свои сообщения
    Вы не можете удалять свои сообщения
    Вы не можете голосовать в опросах
    Вы не можете прикреплять файлы к сообщениям
    Вы можете скачивать файлы
    Окулус / Oculus [2013, ужасы, триллер, BDRip 1080p ] Дубляж смотреть онлайн, скачать торрент picoco.icu