Ссылка на приватное зеркало всего за 1$. Внимание количество ограничено!!!

iTunes

iTunes

iTunes

1

iTunes

iTunes

iTunes

iTunes

iTunes

30
pack

$ от Little Big

ВАЖНО

!!Акция!!

Alien_RageХит недели

RePack

Resident Evil 21

ИГРА 18+

pack

RePack

jed

!!Акция!!

Alien_Rage

RePack

fifa19

RePack

Assassins Creed: Odyssey

RePack

NEED FOR SPEED™ PAYBACK

4 сезон

9 сезон

Бесстыжие 9 сезон

Все сериалы

все сериалы на PB.wtf

RePack

FAR CRY 5
  

Крест. Часть вторая: Двойной обман / Cross Wars (Патрик Дархэм) [2017, боевик, WEB-DL 1080p] Профессиональный многоголосый [Лицензия / iTunes] pb.wtf

Крест. Часть вторая: Двойной обман через торрент pb.wtf

Размер: 4.15 GB | Добавлен: 3 года 5 мес. назад | Торрент скачан:178 раз
Скачать  

06-02-2017 17:48 Крест. Часть вторая: Двойной обман Скачать торрент  


Крест. Часть вторая: Двойной обман / Cross Wars


ИНФОРМАЦИЯ:
Год выпуска:2017
Страна: США
Жанр: боевик
Продолжительность: 01:38:14
Перевод: Профессиональный многоголосый [Лицензия / iTunes]
Режиссер: Патрик Дархэм

В Ролях:


Брайан Остин Грин (Callan), Дэнни Трехо (Murete), Винни Джонс (Gunnar), Патрик Дархэм (War), Том Сайзмор (Detective Frank Nitti), Лори Хёринг (Lucia), Тим Эбелл (Riot), Андре Гордон (Ranger), Нед Либл (Saint), Amy Jane (Riley), Джонатан Сачар (Shark), Джейсон Скотт Дженкинс (Jax)

ОПИСАНИЕ:
Возвращение непримиримого борца со злом Каллана, обладателя древнего магического амулета Крест, и его брутальной команды. Теперь их жизням угрожает новый враг Муэрте и их старый знакомый, проклятый викинг Гуннар. Чтобы спастись самим и спасти всё человечество, герои вынуждены объединиться с командой воинственных женщин, возглавляемых красавицей Райли, у которой есть своей древний амулет.

  • Мировая премьера:7 февраля 2017

    ТЕХ.ДАННЫЕ:
    Качество: WEB-DL 1080p
    Формат: MKV
    Видео: AVC, 1920x1032 (1.85:1), 5165 kbps, 23,976 fps, 0,109 bpp
    Аудио №1: русский / AC3 / 5.1 / 48 kHz / 384 kbps / ||
    Аудио №2: английский / AC3 / 5.1 / 48 kHz / 384 kbps /
    Навигация по главам: есть


    General
    Unique ID : 236514480158538869824743621805563037379 (0xB1EF082EA6E117A7B7B0280EA8D1C6C3)
    Complete name : W:\Торенты\Cross Wars.2017.WEB-DL1080.MegaPeer.mkv
    Format : Matroska
    Format version : Version 2
    File size : 4.15 GiB
    Duration : 1 h 38 min
    Overall bit rate : 6 054 kb/s
    Encoded date : UTC 2017-02-06 14:26:26
    Writing application : mkvmerge v5.8.0 ('No Sleep / Pillow') built on Sep 2 2012 15:37:04
    Writing library : libebml v1.2.3 + libmatroska v1.3.0

    Video
    ID : 1
    Format : AVC
    Format/Info : Advanced Video Codec
    Format profile : High@L4
    Format settings, CABAC : Yes
    Format settings, ReFrames : 4 frames
    Muxing mode : Header stripping
    Codec ID : V_MPEG4/ISO/AVC
    Duration : 1 h 38 min
    Bit rate : 5 165 kb/s
    Width : 1 920 pixels
    Height : 1 032 pixels
    Display aspect ratio : 1.85:1
    Frame rate mode : Constant
    Frame rate : 23.976 FPS
    Color space : YUV
    Chroma subsampling : 4:2:0
    Bit depth : 8 bits
    Scan type : Progressive
    Bits/(Pixel*Frame) : 0.109
    Stream size : 3.54 GiB (85%)
    Language : English
    Default : Yes
    Forced : No
    Color range : Limited
    Color primaries : BT.709
    Transfer characteristics : BT.709
    Matrix coefficients : BT.709

    Audio #1
    ID : 2
    Format : AC-3
    Format/Info : Audio Coding 3
    Mode extension : CM (complete main)
    Format settings, Endianness : Big
    Muxing mode : Header stripping
    Codec ID : A_AC3
    Duration : 1 h 38 min
    Bit rate mode : Constant
    Bit rate : 384 kb/s
    Channel(s) : 6 channels
    Channel positions : Front: L C R, Side: L R, LFE
    Sampling rate : 48.0 kHz
    Frame rate : 31.250 FPS (1536 spf)
    Compression mode : Lossy
    Stream size : 270 MiB (6%)
    Language : Russian
    Default : Yes
    Forced : Yes

    Audio #2
    ID : 3
    Format : AC-3
    Format/Info : Audio Coding 3
    Mode extension : CM (complete main)
    Format settings, Endianness : Big
    Muxing mode : Header stripping
    Codec ID : A_AC3
    Duration : 1 h 38 min
    Bit rate mode : Constant
    Bit rate : 384 kb/s
    Channel(s) : 6 channels
    Channel positions : Front: L C R, Side: L R, LFE
    Sampling rate : 48.0 kHz
    Frame rate : 31.250 FPS (1536 spf)
    Compression mode : Lossy
    Stream size : 270 MiB (6%)
    Language : English
    Default : No
    Forced : No

    Menu
    00:00:00.000 : en:1
    00:05:19.527 : en:2
    00:13:16.712 : en:3
    00:19:27.374 : en:4
    00:27:17.552 : en:5
    00:36:46.494 : en:6
    00:42:51.774 : en:7
    00:48:12.886 : en:8
    00:55:08.509 : en:9
    01:00:25.449 : en:10
    01:06:05.287 : en:11
    01:11:03.667 : en:12
    01:14:50.310 : en:13
    01:19:49.816 : en:14
    01:25:01.169 : en:15
    01:32:18.022 : en:16
    Скриншоты:

    © Оформление by .::Ворон::.
    pb.wtf



  • Скачать Крест. Часть вторая: Двойной обман через торрент http://pic.kartinco.top/images/6/ordi9.jpg Скачать фильм Крест. Часть вторая: Двойной обман через торрент бесплантно в хорошем качестве Е:Возвращение непримиримого борца со злом Каллана, обладателя древнего магического амулета Крест, и его брутальной команды. Теперь их ... 8.9 10 8
    Info! Золотая раздача, скачанное не засчитывается.
    Торрент: Зарегистрирован [2017-02-06 17:48] · скачан: 178 раз
    Статус: √ проверено
    Размер: 4.15 GB
    Как cкачать? Как скачать Крест. Часть вторая: Двойной обман через торрент | qTorrent

    % Раздел Тема Автор DL S | L
    Фильмы 2017 [DVDrip, WEB-DLRip, HDrip] (DUB, MVO) [ 1.42 GB ] Крест. Часть вторая: Двойной обман / Cross Wars [2017 BDRip] многоголосый Twi7ter Скачать
    1 | 0
    Фильмы без перевода [ 18.65 GB ] Крест. Часть вторая: Двойной обман / Cross Wars [2017 BD Remux] [Оригинал-ENG] smaster Скачать
    1 | 0
    Фильмы 2017 [DVDrip, WEB-DLRip, HDrip] (DUB, MVO) [ 2.08 GB ] Крест. Часть вторая: Двойной обман / Cross Wars [2017 BDRip-AVC] многоголосый от ExKinoRay Enigma2010 Скачать
    1 | 0
    Фильмы [HD 720p, 1080p] (Хороший звук DUB, MVO) [ 5.98 GB ] Крест. Часть вторая: Двойной обман / Cross Wars [2017 BDRip 720p] MVO bober100 Скачать
    1 | 0
    Фильмы 2017 [DVDrip, WEB-DLRip, HDrip] (DUB, MVO) [ 1.46 GB ] Крест. Часть вторая: Двойной обман / Cross Wars [2017 HDRip многоголосый закадровый ""] coc900 Скачать
    1 | 0
    Фильмы 2017 [DVDrip, WEB-DLRip, HDrip] (DUB, MVO) [ 1.46 GB ] Крест. Часть вторая: Двойной обман / Cross Wars [2017 WEB-DLRip] многоголосый Ворон Скачать
    1 | 0

    28-11-2019 20:33  

    Отключить всю рекламу на сайте

    08-02-2017 19:53 Крест. Часть вторая: Двойной обман Скачать торрент  

    Компашка известная, но чето доверия не внушает. Может амазонки дотащат предполагаемый рейтинг хотя бы до 5. В 90-е наверное схавал бы на ура.pb.wtf



      Дорогой пользователь! Огромная просьба, поблагодарите релизера, оцените раздачу и оставьте свои комментарий, если Вы скачали Крест. Часть вторая: Двойной обман через торрент бесплатно! Внесите свою лепту в развитие PiratBit!
      Комментировать посты могут только пользователи прошедшие не сложную регистрацию
      Показать сообщения:    

      Крест. Часть вторая: Двойной обман через торрент
      Скачать бесплатно Крест. Часть вторая: Двойной обман
      Крест. Часть вторая: Двойной обман скачать торрент
      Крест. Часть вторая: Двойной обман смотреть онлайн
      Cкачать фильм Крест. Часть вторая: Двойной обман бесплатно
      Крест. Часть вторая: Двойной обман скачать торрент в хорошем качестве
      Крест. Часть вторая: Двойной обман смотреть онлайн бесплатно в хорошем качестве


      Вы не можете начинать темы
      Вы не можете отвечать на сообщения
      Вы не можете редактировать свои сообщения
      Вы не можете удалять свои сообщения
      Вы не можете голосовать в опросах
      Вы не можете прикреплять файлы к сообщениям
      Вы можете скачивать файлы