Ссылка на приватное зеркало нашего сайта всего за 1$. Внимание количество ограничено!!!

2 сезон

iTunes

1 сезон

1

2 сезон

2 сезон

iTunes

1 сезон

RePack

30

Ultimate

ВАЖНО

ИГРА 18+

pack

RePack

MK11
pack

Забери бонус

RePack

jed

!!Акция!!

Alien_Rage

RePack

fifa19

RePack

Assassins Creed: Odyssey

RePack

NEED FOR SPEED™ PAYBACK

4 сезон

9 сезон

Бесстыжие 9 сезон

Все сериалы

все сериалы на PB.wtf

RePack

FAR CRY 5
  

Пространство / The Expanse / Сезон: 2 / Серии 1-13 из 13 (Терри МакДонаф, Джефф Вулнаф, Роберт Либерман) [2017, драма, боевик, фантастика, WEB-DLRip] [MVO] (AlexFilm) pb.wtf

Пространство через торрент pb.wtf

Размер: 6.61 GB | Добавлен: 3 года 7 мес. назад | Торрент скачан:225 раз
Скачать  

06-02-2017 18:26 Пространство Скачать торрент  



Пространство / The Expanse


Год выпуска: 2017
Страна: США
Жанр: фантастика, детектив
Продолжительность: 1х ~ 00:44:00
Озвучание: Профессиональное (многоголосое закадровое) (AlexFilm)
Субтитры: нет

Режиссёры: Терри МакДонаф, Джефф Вулнаф, Роберт Либерман

В ролях: Томас Джейн, Стивен Стрейт, Кэс Анвар, Доминик Типпер, Уэс Чэтэм, Шоре Агдашлу, Афина Карканис, Чад Л. Коулмэн, Флоренс Ванида Фэйвр, Дрю Кэрримор

Описание: Через двести лет от дня сегодняшнего некий сыщик, привыкший всё доводить до конца при любых обстоятельствах, в рамках расследования дела об исчезновении молодой женщины оказывается на борту звездолета, капитан которого решает помочь детективу в его непростом деле. Величайший заговор в истории человечества гарантируется, как и его непременное раскрытие.

Релиз:
Перевод: Константин Кривоногов
Монтаж и сведение звука: Михаил Суслов
Роли озвучивали:Евгения Тихонова
Татьяна Манетина
Михаил Суслов
Владимир Курдов
Роман Сопко
Константин Погодаев



Качество: WEB-DLRip
Формат: AVI
Видео кодек: XviD
Аудио кодек: MP3
Видео: 720x400 (1.80:1), 23.976 fps, XviD ~1400 kbps avg, 0.20 bit/pixel
Аудио Rus: 48 kHz, MPEG Layer 3, 2 ch, ~128.00 kbps avg
Аудио Eng: 48 kHz, MPEG Layer 3, 2 ch, ~128.00 kbps avg
Формат : AVI
Формат/Информация : Audio Video Interleave
Размер файла : 534 Мбайт
Продолжительность : 44 м.
Общий поток : 1664 Кбит/сек
Название фильма : The Expanse 1x01 @ AlexFilm
Программа кодирования : VirtualDubMod 1.5.10.2 (build 2540/release)
Библиотека кодирования : VirtualDubMod build 2540/release
Видео
Идентификатор : 0
Формат : MPEG-4 Visual
Профиль формата : Advanced Simple@L5
Параметр BVOP формата : Нет
Параметр QPel формата : Нет
Параметр GMC формата : Без точки перехода
Параметр матрицы формата : Default (H.263)
Идентификатор кодека : XVID
Идентификатор кодека/Подсказка : XviD
Продолжительность : 44 м.
Битрейт : 1394 Кбит/сек
Ширина : 720 пикселей
Высота : 400 пикселей
Соотношение сторон : 16:9
Частота кадров : 23,976 кадра/сек
Цветовое пространство : YUV
Субдискретизация насыщенности : 4:2:0
Битовая глубина : 8 бит
Тип развёртки : Прогрессивная
Метод сжатия : С потерями
Бит/(Пиксели*Кадры) : 0.202
Размер потока : 448 Мбайт (84%)
Библиотека кодирования : XviD 73
Аудио #1
Идентификатор : 1
Формат : MPEG Audio
Версия формата : Version 1
Профиль формата : Layer 3
Режим : Joint stereo
Расширение режима : MS Stereo
Идентификатор кодека : 55
Идентификатор кодека/Подсказка : MP3
Продолжительность : 44 м.
Вид битрейта : Постоянный
Битрейт : 128 Кбит/сек
Каналы : 2 канала
Частота : 48,0 КГц
Метод сжатия : С потерями
Размер потока : 41,1 Мбайт (8%)
Выравнивание : Соединение по промежуткам
Продолжительность промежутка : 42 мс. (1,00 видеокадр)
Время предзагрузки промежутка : 504 мс.
Заголовок : Russian (AlexFilm)
Аудио #2
Идентификатор : 2
Формат : MPEG Audio
Версия формата : Version 1
Профиль формата : Layer 3
Режим : Joint stereo
Расширение режима : MS Stereo
Идентификатор кодека : 55
Идентификатор кодека/Подсказка : MP3
Продолжительность : 44 м.
Вид битрейта : Постоянный
Битрейт : 128 Кбит/сек
Каналы : 2 канала
Частота : 48,0 КГц
Метод сжатия : С потерями
Размер потока : 41,1 Мбайт (8%)
Выравнивание : Соединение по промежуткам
Продолжительность промежутка : 42 мс. (1,00 видеокадр)
Время предзагрузки промежутка : 504 мс.
Заголовок : English
Библиотека кодирования : LAME3.90.3
Внимание! Раздача ведётся путём добавления новых серий; при каждом добавлении создаётся новый торрент. Чтобы начать докачку новой серии, пользователям необходимо сделать следующее:
(1) остановить скачивание,
(2) удалить старый торрент у себя из клиента (старые серии удалять не надо),
(3) скачать новый торрент и запустить его у себя в клиенте вместо старого, при этом указать клиенту путь в старую папку куда и должно происходить скачивание новых серий.
Ваш клиент при этом должен произвести хеширование (проверку) старой папки (если не производит сам - помогите ему сделать это), и будет докачивать только те серии которых у вас ещё нет. Старые серии при этом не удаляются, а продолжают раздаваться!
Eсли вы уже удалили старые серии, то предотвратить повторную закачку старых серий можно, отжав галочку в соответствующих местах при запуске нового торрента. По возможности, желательно не удалять старые серии как можно дольше чтобы релизёр не столько продолжал раздавать старые серии, а смог сконцентрироваться на новых.
pb.wtf



Скачать Пространство через торрент http://i89.fastpic.ru/big/2017/0206/9c/e1ac76b695cb159dfa05d7a20ef4329c.jpg Скачать фильм Пространство через торрент бесплантно в хорошем качестве Описание: Через двести лет от дня сегодняшнего некий сыщик, привыкший всё доводить до конца при любых обстоятельствах, в рамках ... 9.9 10 8
Info! Серебряная раздача, засчитывается только 50% скачанного.
Торрент: Зарегистрирован [2017-04-21 20:35] · скачан: 225 раз
Статус: √ проверено
Размер: 6.61 GB
Как cкачать? Как скачать Пространство через торрент | qTorrent

% Раздел Тема Автор DL S | L
Зарубежные сериалы [ 6.99 GB ] Пространство / Экспансия / The Expanse / Сезон 2 / Серии 1-13 из 13 [2017 WEB-DLRip] MVO [Кравец] bober100 Скачать
1 | 0
Зарубежные сериалы [ 9.54 GB ] Пространство / Экспансия / The Expanse / Сезон: 2 / Серии 1-13 из 13 [2017 WEB-DLRip-AVC] MVO [Lostfilm] GEKADOL Скачать
1 | 0
Зарубежные сериалы [ 26.89 GB ] Пространство / Экспансия / The Expanse / Сезон: 2 / Серии: 1-13 из 13 [2017 BDRip 1080p ] MVO [LostFilm] bober100 Скачать
2 | 0
Зарубежные сериалы [ 117.15 GB ] Пространство / Экспансия / The Expanse / Сезон 2 / Серии 1-13 из 13 [2017 BD Remux 1080p] MVO [LostFilm] bober100 Скачать
2 | 0
Зарубежные сериалы [ 18.77 GB ] Пространство / The Expanse / Сезон: 2 / Серии 1-13 из 13 [2017 WEB-DL 720p] [MVO] killermax2013 Скачать
1 | 0
Зарубежные сериалы [ 23.11 GB ] Пространство / The Expanse / Сезон: 2 / Серии 1-13 из 13 [2017 WEB-DL 1080p] [MVO] killermax2013 Скачать
1 | 0
Зарубежные сериалы [ 10.64 GB ] Пространство / Экспансия / The Expanse / Сезон: 2 / Серии 1-13 из 13 [2017 WEB-DLRip-AVC] MVO [BaibaKo] GEKADOL Скачать
1 | 0


Последний раз редактировалось: killermax2013 (2017-04-21 20:35), всего редактировалось 3 раз(а)

28-11-2019 20:33  

Отключить всю рекламу на сайте

25-02-2017 21:38 Пространство Скачать торрент  

+4pb.wtf



04-03-2017 08:01 Пространство Скачать торрент  

+5-6pb.wtf



21-04-2017 20:36 Пространство Скачать торрент  

Добавлены все серииpb.wtf



    Дорогой пользователь! Огромная просьба, поблагодарите релизера, оцените раздачу и оставьте свои комментарий, если Вы скачали Пространство через торрент бесплатно! Внесите свою лепту в развитие PiratBit!
    Комментировать посты могут только пользователи прошедшие не сложную регистрацию
    Показать сообщения:    

    Пространство через торрент
    Скачать бесплатно Пространство
    Пространство скачать торрент
    Пространство смотреть онлайн
    Cкачать фильм Пространство бесплатно
    Пространство скачать торрент в хорошем качестве
    Пространство смотреть онлайн бесплатно в хорошем качестве


    Вы не можете начинать темы
    Вы не можете отвечать на сообщения
    Вы не можете редактировать свои сообщения
    Вы не можете удалять свои сообщения
    Вы не можете голосовать в опросах
    Вы не можете прикреплять файлы к сообщениям
    Вы можете скачивать файлы