Ссылка на приватное зеркало нашего сайта всего за 1$. Внимание количество ограничено!!!

2 сезон

iTunes

1 сезон

1

iTunes

iTunes

iTunes

1 сезон

RePack

30

ИГРА 18+

pack

ВАЖНО

!!Акция!!

Alien_RageХит недели

RePack

MK11
pack

Забери бонус

RePack

jed

!!Акция!!

Alien_Rage

RePack

fifa19

RePack

Assassins Creed: Odyssey

RePack

NEED FOR SPEED™ PAYBACK

4 сезон

9 сезон

Бесстыжие 9 сезон

Все сериалы

все сериалы на PB.wtf

RePack

FAR CRY 5
  

Адаптация / Сезон 1 / Серии 1-17 из 17 (Фёдор Стуков) [2017, комедия, WEB-DL 720p] pb.wtf

Адаптация через торрент pb.wtf

Размер: 10.61 GB | Добавлен: 3 года 7 мес. назад | Торрент скачан:355 раз
Скачать  

06-02-2017 20:39 Адаптация Скачать торрент  

Адаптация


Год выпуска: 2017

Страна: Россия
Жанр: комедия
Продолжительность: 00:24:25
Перевод: Не требуется [Русский]
Режиссер: Фёдор Стуков
В ролях:

Леонид Бичевин (Эштон Айви / Олег Меньшов), Артур Бесчастный (Валерий Перцов), Евгения Брик (Марина Потеряева), Анастасия Дубровская (Света), Юрий Стоянов (Евгений Геннадьевич (ЕГ) Евдокимов, глава отделения ФСБ по городу Ноябрьску), Александр Ильин (Владимир Николаевич Нагорняк, генеральный директор компании «Газпром добыча ЯНАО»), Александр Назаров (Логунов), Нелли Уварова (Вика, секретарь Владимира Нагорняка), Алексей Базанов (админ), Андрей Бурковский (Рома), Питер Джекобсон (Дойл Брансон, полковник ЦРУ, руководитель операции «Розильда»), Брюс Джонсон (Харрисон, глава ЦРУ)
Описание:
Американского шпиона засылают в Газпром и ставят перед ним нереальную задачу - стать русским. Под видом русского инженера Олега Меньшова он внедряется в региональное подразделение крупной российской газодобывающей компании в городе Ноябрьск, чтобы получить секретную информацию о новейшей разработке российских ученых в области добычи газа. В идеальной подготовке шпиона есть только один пробел: он совершенно не понимает наш менталитет, что ставит под угрозу проведение всей операции. В ходе своей миссии герой знакомится с простым, но только на первый взгляд, кубанским парнем по имени Валера и местной красавицей Мариной, к которой у него постепенно возникают чувства. Американскому шпиону придется разрываться между дружбой, любовью и своей миссией. И с каждым днем выбор будет становиться все сложнее...

Качество: WEB-DL 720p
Формат: MKV
Видео: AVC, 1280x720 (16:9), 3506 kbps, 25 fps, 0,152 bpp
Аудио: русский / AC3 / 2.0 / 48 kHz / 192 kbps / ||

General
Unique ID : 224006233912687357081585149090368485642 (0xA88608075A29877FBC58A6E492D2790A)
Complete name : E:\Adaptatsiya.2017.WEB-DL.(720p).Nikolspup\Adaptatsiya.(01.seriya).2017.WEB-DL.(720p).Nikolspup.mkv
Format : Matroska
Format version : Version 2
File size : 659 MiB
Duration : 24 min
Overall bit rate : 3 773 kb/s
Encoded date : UTC 2017-02-06 17:53:28
Writing application : mkvmerge v5.8.0 ('No Sleep / Pillow') built on Sep 2 2012 15:37:04
Writing library : libebml v1.2.3 + libmatroska v1.3.0

Video
ID : 1
Format : AVC
Format/Info : Advanced Video Codec
Format profile : High@L3.1
Format settings, CABAC : Yes
Format settings, ReFrames : 1 frame
Format settings, GOP : M=1, N=12
Codec ID : V_MPEG4/ISO/AVC
Duration : 24 min
Bit rate : 3 506 kb/s
Width : 1 280 pixels
Height : 720 pixels
Display aspect ratio : 16:9
Frame rate mode : Constant
Frame rate : 25.000 FPS
Standard : Component
Color space : YUV
Chroma subsampling : 4:2:0
Bit depth : 8 bits
Scan type : Progressive
Bits/(Pixel*Frame) : 0.152
Stream size : 612 MiB (93%)
Default : No
Forced : No
Color range : Limited

Audio
ID : 2
Format : AC-3
Format/Info : Audio Coding 3
Mode extension : CM (complete main)
Format settings, Endianness : Big
Codec ID : A_AC3
Duration : 24 min
Bit rate mode : Constant
Bit rate : 192 kb/s
Channel(s) : 2 channels
Channel positions : Front: L R
Sampling rate : 48.0 kHz
Frame rate : 31.250 FPS (1536 spf)
Compression mode : Lossy
Stream size : 33.5 MiB (5%)
Language : Russian
Default : Yes
Forced : Yes

© Оформление by White Smoke pb.wtf
!White Smoke писал(а):

Раздача ведётся путём добавления новых серий.



Скачать Адаптация через торрент http://i6.imageban.ru/out/2017/02/06/be3ac3f4453d0a81a77d79ccd5193939.jpg Скачать фильм Адаптация через торрент бесплантно в хорошем качестве Описание: Американского шпиона засылают в Газпром и ставят перед ним нереальную задачу - стать русским. Под видом русского инженера Олега ... 10 10 25
× Info от релизера! Добавлена 15-17 серия финал сезона
Info! Золотая раздача, скачанное не засчитывается.
Торрент: Зарегистрирован [2017-03-07 23:32] · скачан: 355 раз
Статус: √ проверено
Размер: 10.61 GB
Как cкачать? Как скачать Адаптация через торрент | qTorrent

% Раздел Тема Автор DL S | L
TNT serials [ 31.12 GB ] Адаптация / Сезон: 1-2 / Серии: 1-37 из 37 [2017-2019 WEB-DL 1080p] bober100 Скачать
1 | 0
TNT serials [ 14.34 GB ] Адаптация / Сезон: 1 / Серии: 1-17 из 17 [2017 WEB-DL 1080p] bober100 Скачать
1 | 0
R.G.Resident - Сериалы, Видео [ 4.87 GB ] Адаптация / Сезон 1 / Серии 1-17 из 17 [2017 WEB-DLRip-AVC] White Smoke Скачать
1 | 0
Наши сериалы [ 15.22 GB ] Доктор Рихтер / Сезон: 1 / Серии 1-24 из 24 [2017 Россия медицина адаптация HDTVRip] GEKADOL Скачать
1 | 0
Наши сериалы [ 4.96 GB ] Адаптация / Сезон 1 / 1-17 серии из 17 [2017 WEB-DLRip] bober100 Скачать
1 | 0
TNT serials [ 5.01 GB ] Адаптация / Сезон 1 / Серии 1-17 из 17 [2017 Россия SATRip] GEKADOL Скачать
2 | 0

28-11-2019 20:33  

Отключить всю рекламу на сайте

18-04-2017 20:59 Адаптация Скачать торрент  

Что-то 17-я серия не полностью ...pb.wtf



    Дорогой пользователь! Огромная просьба, поблагодарите релизера, оцените раздачу и оставьте свои комментарий, если Вы скачали Адаптация через торрент бесплатно! Внесите свою лепту в развитие PiratBit!
    Комментировать посты могут только пользователи прошедшие не сложную регистрацию
    Показать сообщения:    

    Адаптация через торрент
    Скачать бесплатно Адаптация
    Адаптация скачать торрент
    Адаптация смотреть онлайн
    Cкачать фильм Адаптация бесплатно
    Адаптация скачать торрент в хорошем качестве
    Адаптация смотреть онлайн бесплатно в хорошем качестве


    Вы не можете начинать темы
    Вы не можете отвечать на сообщения
    Вы не можете редактировать свои сообщения
    Вы не можете удалять свои сообщения
    Вы не можете голосовать в опросах
    Вы не можете прикреплять файлы к сообщениям
    Вы можете скачивать файлы