2 сезон

iTunes

MVO

1

2 сезон

iTunes

iTunes

1 сезон

RePack

30

Новинка

ВАЖНО

ИГРА 18+

pack

RePack

MK11
pack

Легкие деньги

RePack

jed

RePack

fifa19

RePack

RDR2

RePack

NEED FOR SPEED™ PAYBACK

4 сезон

9 сезон

Бесстыжие 9 сезон

Все сериалы

все сериалы на PB.wtf

RePack

FAR CRY 5

Anonymous, добрый вечер, мы не успеваем собрать деньги на оплату серверов за декабрь и январь, помогите нам пожалуйста в это трудное время. В качестве благодарности мы отключим Вам всю рекламу на сайте (укажите свой ник в строку Ваше имя)!

×
  
Magnet ссылка

Iron Maiden - Raising Hell 2003 / DVD / Heavy Metal pb.wtf

Iron Maiden - Raising Hell 2003 через торрент pb.wtf

Качают: 1 [ 0 KB/s ]
Размер: 5.05 GB | Добавлен: 3 года 11 мес. назад | Торрент скачан:1 раз
Скачать  

06-02-2017 21:10 Iron Maiden - Raising Hell 2003 Скачать торрент  


  
Iron Maiden - Raising Hell
Страна: England
Жанр: Heavy Metal
Год выпуска: 2003
Продолжительность: 01:53:09

скриншот  скриншот  скриншот  скриншот  скриншот  
Описание: 23 августа 1993 года метал-группа Iron Maiden и иллюзионист Simon Drake объединились, чтобы создать наиболее жуткое событие всех времен и народов: Raising Hell. В этом первом и единственном живом рок-концерте с постановкой фильма ужасов, группа празднует последнее выступление вокалиста Bruce Dickinson с Iron Maiden. Концерт, записанный на Pinewood Studios в Лондоне, включает в себя леденящие кровь иллюзии и семнадцать классических песен группы.
скриншот   скриншот  скриншот  скриншот  
:
1. Be Quick Or Be Dead
2. The Trooper
3. The Evil That Men Do
4. The Clairvoyant
5. Hallowed Be Thy Name
6. Wrathchild
7. Transylvania
8. From Here To Eternity
9. Fear Of The Dark
10. The Number Of The Beast
11. Bring Your Daughter....To The Slaughter
12. Two Minutes To Midnight
13. Afraid To Shoot Strangers
14.Heaven Can't Wait
15.Sanctuary
16.Run To The Hills
17. Iron Maiden
Качество:DVD9
Формат:DVD Video
Видео кодек:MPEG2
Аудио: AC3

Видео: MPEG 2 VIDEO, 720*480, NTSC (4:3), 29.97 fps, ~5569 kbps, 0.538 bit/pixel
Аудио #1: 48.0 khz, AC 3, 6 ch, 384 kbps
Аудио #2: 48.0 khz, AC 3, 2 ch, 192 kbps
Title: Iron Maiden - Raising Hell DVD9
Size: 5.05 Gb ( 5 293 054,00 KBytes ) - DVD-9
Enabled regions: 1, 2, 3, 4, 5, 6, 7, 8

VTS_01 :
Play Length: 01:53:09
Video: NTSC 4:3 (720x480) VBR
Audio:
English (Dolby AC3, 6 ch)
English (Dolby AC3, 2 ch)

VTS_02 :
Play Length: 00:00:40
Video: NTSC 4:3 (720x480) VBR
Subtitles:
Not specified

Общее
Полное имя : D:\Torrents\Download\Iron Maiden - Raising Hell DVD9\VIDEO_TS\VTS_01_1.VOB
Формат : MPEG-PS
Размер файла : 1024 Мбайт
Продолжительность : 22 м.
Режим общего битрейта : Переменный
Общий поток : 6269 Кбит/сек

Видео
Идентификатор : 224 (0xE0)
Формат : MPEG Video
Версия формата : Version 2
Профиль формата : Main@Main
Параметр BVOP формата : Да
Параметр матрицы формата : Выборочная
Параметр GOP формата : M=3, N=12
Продолжительность : 22 м.
Вид битрейта : Переменный
Битрейт : 5569 Кбит/сек
Максимальный битрейт : 3601 Кбит/сек
Ширина : 720 пикселей
Высота : 480 пикселей
Соотношение сторон : 4:3
Частота кадров : 29,970 кадров/сек
Стандарт вещания : NTSC
Цветовое пространство : YUV
Субдискретизация насыщенности : 4:2:0
Битовая глубина : 8 бит
Тип развёртки : Чересстрочная
Порядок развёртки : Верхнее поле первое
Метод сжатия : С потерями
Бит/(Пиксели*Кадры) : 0.538
TimeCode_FirstFrame : 00:59:59:00
TimeCode_Source : Group of pictures header
Размер потока : 910 Мбайт (89%)

Аудио #1
Идентификатор : 189 (0xBD)-128 (0x80)
Формат : AC-3
Формат/Информация : Audio Coding 3
Расширение режима : CM (complete main)
Параметр Endianness формата : Big
Режим смешивания : DVD-Video
Продолжительность : 22 м.
Вид битрейта : Постоянный
Битрейт : 384 Кбит/сек
Каналы : 6 каналов
Расположение каналов : Front: L C R, Side: L R, LFE
Частота : 48,0 КГц
Битовая глубина : 16 бит
Метод сжатия : С потерями
Задержка видео : -66 мс.
Размер потока : 62,7 Мбайт (6%)

Аудио #2
Идентификатор : 189 (0xBD)-129 (0x81)
Формат : AC-3
Формат/Информация : Audio Coding 3
Расширение режима : CM (complete main)
Параметр Endianness формата : Big
Режим смешивания : DVD-Video
Продолжительность : 22 м.
Вид битрейта : Постоянный
Битрейт : 192 Кбит/сек
Каналы : 2 канала
Расположение каналов : Front: L R
Частота : 48,0 КГц
Битовая глубина : 16 бит
Метод сжатия : С потерями
Задержка видео : -66 мс.
Размер потока : 31,4 Мбайт (3%)
скриншот  скриншот  скриншот  скриншот  
pb.wtf



Скачать Iron Maiden - Raising Hell 2003 через торрент http://i91.fastpic.ru/big/2017/0207/df/3ba69e6b4469a31ced06b9a91c2a17df.jpg Скачать фильм Iron Maiden - Raising Hell 2003 через торрент бесплантно в хорошем качестве Описание: 23 августа 1993 года метал-группа Iron Maiden и иллюзионист Simon Drake объединились, чтобы создать наиболее жуткое событие ... 10 10 3
Info! Золотая раздача, скачанное не засчитывается.
Торрент: Зарегистрирован [2017-02-06 21:10] · скачан: 1 раз
Статус: √ проверено
Размер: 5.05 GB
Как cкачать? Как скачать Iron Maiden - Raising Hell 2003 через торрент | UTorrent



Последний раз редактировалось: dybrik13 (2017-02-07 09:10), всего редактировалось 1 раз

28-11-2019 20:33  

Отключить всю рекламу на сайте

07-02-2017 05:01 Iron Maiden - Raising Hell 2003 Скачать торрент  

07-02-2017 08:53 Iron Maiden - Raising Hell 2003 Скачать торрент  

Dubrik13, скриншоты на соответствующие замениpb.wtf



    Дорогой пользователь! Огромная просьба, поблагодарите релизера, оцените раздачу и оставьте свои комментарий, если Вы скачали Iron Maiden - Raising Hell 2003 через торрент бесплатно! Внесите свою лепту в развитие PiratBit!
    Комментировать посты могут только пользователи прошедшие не сложную регистрацию
    Показать сообщения:    

    Iron Maiden - Raising Hell 2003 через торрент
    Скачать бесплатно Iron Maiden - Raising Hell 2003
    Iron Maiden - Raising Hell 2003 скачать торрент
    Iron Maiden - Raising Hell 2003 смотреть онлайн
    Cкачать фильм Iron Maiden - Raising Hell 2003 бесплатно
    Iron Maiden - Raising Hell 2003 скачать торрент в хорошем качестве
    Iron Maiden - Raising Hell 2003 смотреть онлайн бесплатно в хорошем качестве


    Вы не можете начинать темы
    Вы не можете отвечать на сообщения
    Вы не можете редактировать свои сообщения
    Вы не можете удалять свои сообщения
    Вы не можете голосовать в опросах
    Вы не можете прикреплять файлы к сообщениям
    Вы можете скачивать файлы