Ссылка на приватное зеркало всего за 1$. Внимание количество ограничено!!!

OK

1+1

iTunes

мы

OK

1

WEB-DLRip

Джокер

Пифагор

Ведьмак / The Witcher сериал

Лицензия

ПШазам

ОК

Оно 2

iTunes

30
pack

Вам бонус

ВАЖНО

!!Акция!!

Alien_RageХит недели

RePack

Resident Evil 21

ИГРА 18+

pack

RePack

jed

RePack

fifa19

RePack

Assassins Creed: Odyssey

RePack

NEED FOR SPEED™ PAYBACK

4 сезон

9 сезон

Бесстыжие 9 сезон

Все сериалы

все сериалы на PB.wtf

RePack

FAR CRY 5
  

Чапаев Чапаев (Виктор Тихомиров) [2013 г., Комедия, WEB-DLRip] [iTunes] pb.wtf

Чапаев Чапаев через торрент pb.wtf

Размер: 1.46 GB | Добавлен: 2 года 11 мес. назад | Торрент скачан:267 раз
Скачать  

07-02-2017 06:20 Чапаев Чапаев Скачать торрент  

Чапаев Чапаев
Год выпуска: 2013
Страна: Россия
Жанр: Комедия
Продолжительность: 02:00:02
Субтитры: Отсутствуют

Режиссер: Виктор Тихомиров



В ролях: Иван Охлобыстин, Александр Баширов, Михаил Шац, Тарас Бибич, Сергей Перегудов, Ольга Толстецкая, Вячеслав Карпов, Наталья Иохвидова, Артём Музыченко, Владимир Гладкий

Описание: События в фильме происходят параллельно — это двадцатые и шестидесятые годы. В шестидесятых — речь пойдёт о фальшивомонетчице, которая влюбляется в актёра, исполняющего роль Чапаева. Двадцатые — это годы Гражданской войны, на фронтах которой Чапаев принимал активное участие.

Качество: WEB-DLRip
Формат: AVI
Видео кодек: XviD
Аудио кодек: AC3
Видео: 720x400 (16:9), 24 fps, XviD ~ 1350 kbps avg, 0.195 bit/pixel
Аудио: AC3, 48 kHz, 6 ch, ~384.00 kbps



General
Complete name : H:\релизы.торрентфайл\Chapaev.Chapaev.2013.WEB-DLRip_POWER.avi
Format : AVI
Format/Info : Audio Video Interleave
File size : 1.46 GiB
Duration : 2h 0mn
Overall bit rate : 1 743 Kbps
Writing application : VirtualDubMod 1.5.10.3 (build 2550/release)
Writing library : VirtualDubMod build 2550/release

Video
ID : 0
Format : MPEG-4 Visual
Format profile : Advanced Simple@L5
Format settings, BVOP : 2
Format settings, QPel : No
Format settings, GMC : No warppoints
Format settings, Matrix : Custom
Codec ID : XVID
Codec ID/Hint : XviD
Duration : 2h 0mn
Bit rate : 1 350 Kbps
Width : 720 pixels
Height : 400 pixels
Display aspect ratio : 16:9
Frame rate : 24.000 fps
Color space : YUV
Chroma subsampling : 4:2:0
Bit depth : 8 bits
Scan type : Progressive
Compression mode : Lossy
Bits/(Pixel*Frame) : 0.195
Stream size : 1.13 GiB (77%)
Writing library : XviD 73

Audio
ID : 1
Format : AC-3
Format/Info : Audio Coding 3
Mode extension : CM (complete main)
Format settings, Endianness : Big
Codec ID : 2000
Duration : 2h 0mn
Bit rate mode : Constant
Bit rate : 384 Kbps
Channel(s) : 6 channels
Channel positions : Front: L C R, Side: L R, LFE
Sampling rate : 48.0 KHz
Bit depth : 16 bits
Compression mode : Lossy
Stream size : 330 MiB (22%)
Alignment : Split accross interleaves
Interleave, duration : 42 ms (1.00 video frame)
Interleave, preload duration : 500 ms

pb.wtf



Скачать Чапаев Чапаев через торрент http://pic1.kartinco.top/images/11/2byfy.jpg Скачать фильм Чапаев Чапаев через торрент бесплантно в хорошем качестве Описание: События в фильме происходят параллельно — это двадцатые и шестидесятые годы. В шестидесятых — речь пойдёт о фальшивомонетчице, ... 8.9 10 8
Торрент: Зарегистрирован [2017-02-07 06:20] · скачан: 267 раз
Статус: √ проверено
Размер: 1.46 GB
Как cкачать? Как скачать Чапаев Чапаев через торрент | qTorrent

% Раздел Тема Автор DL S | L
Наши фильмы (HD, WEB-DL 720p, 1080p) [ 3.67 GB ] Чапаев Чапаев [2013 WEB-DL 720p] bober100 Скачать
1 | 0
Русские порно фильмы [ 1.07 GB ] Чапаев [2003 All Sex DVDRip] medsuk Скачать
1 | 0
Кино СССР [ 1.37 GB ] Чапаев [1934 военный биография история DVDRip] lexxus350 Скачать
1 | 0

28-11-2019 20:33  

Отключить всю рекламу на сайте

    Дорогой пользователь! Огромная просьба, поблагодарите релизера, оцените раздачу и оставьте свои комментарий, если Вы скачали Чапаев Чапаев через торрент бесплатно! Внесите свою лепту в развитие PiratBit!
    Комментировать посты могут только пользователи прошедшие не сложную регистрацию
    Показать сообщения:    

    Чапаев Чапаев через торрент
    Скачать бесплатно Чапаев Чапаев
    Чапаев Чапаев скачать торрент
    Чапаев Чапаев смотреть онлайн
    Cкачать фильм Чапаев Чапаев бесплатно
    Чапаев Чапаев скачать торрент в хорошем качестве
    Чапаев Чапаев смотреть онлайн бесплатно в хорошем качестве


    Вы не можете начинать темы
    Вы не можете отвечать на сообщения
    Вы не можете редактировать свои сообщения
    Вы не можете удалять свои сообщения
    Вы не можете голосовать в опросах
    Вы не можете прикреплять файлы к сообщениям
    Вы можете скачивать файлы