Ссылка на приватное зеркало нашего сайта всего за 1$. Внимание количество ограничено!!!

2 сезон

iTunes

1 сезон

1

iTunes

iTunes

iTunes

1 сезон

RePack

30

ИГРА 18+

pack

ВАЖНО

!!Акция!!

Alien_RageХит недели

RePack

MK11
pack

Забери бонус

RePack

jed

!!Акция!!

Alien_Rage

RePack

fifa19

RePack

Assassins Creed: Odyssey

RePack

NEED FOR SPEED™ PAYBACK

4 сезон

9 сезон

Бесстыжие 9 сезон

Все сериалы

все сериалы на PB.wtf

RePack

FAR CRY 5
  

Рэй / Ray (Тейлор Хэкфорд) [2004, драма, биография, музыка, BDRip 720p by msltel] DUB, AVO pb.wtf

Рэй через торрент pb.wtf

Размер: 7.26 GB | Добавлен: 3 года 8 мес. назад | Торрент скачан:53 раза
Скачать  

07-02-2017 09:06 Рэй Скачать торрент  

Название: Рэй
Оригинальное название: Ray
Год выпуска: 2004
Страна: США
Жанр: драма, биография, музыка
Продолжительность: 02:32:25
Перевод: дублированный, авторский

Режиссёр: Тейлор Хэкфорд

В ролях: Джейми Фокс, Керри Вашингтон, Реджина Кинг, Клифтон Пауэлл, Гарри Дж. Ленникс, Букем Вудбайн, Онжаню Эллис, Шаррон Уоррен, С.Дж. Сандерс, Кёртис Армстронг, Ричард Шифф, Лоренц Тейт, Терренс Ховард, Дэвид Крамхолц, Уенделл Пирс, Крис Томас Кинг, Рик Гомез, Роберт Уиздом, Дениз Дауз, Курт Фуллер

Описание: История жизни великого американского музыканта Рэя Чарльза. Нищее детство, потеря брата, ранняя слепота, наркотики, женщины, 12 детей, борьба с расизмом, а также незаурядный талант, блестящая карьера и настоящая революция в музыке...



Качество: BDRip 720p
Формат: MKV
Видео: MPEG-4 AVC, 5469 Кбит/с, 1280x694, 23,976 кадра/с
Аудио 1: русский, AC3, 448 kbps, 6 ch, 48 kHz [дублированный]
Аудио 2: русский, AC3, 448 kbps, 6 ch, 48 kHz [авторский, Евгений Гранкин]
Аудио 3: английский, AC3, 448 kbps, 6 ch, 48 kHz [оригинал]
Субтитры 1: русские (надписи)
Субтитры 2: русские (комментарий)
Субтитры 3: английские (для слабослышащих)
Имеются неименованные главы/чаптеры.
Общее
Уникальный идентификатор : 226056438886749968399303347896585294790 (0xAA10E2F02E09E782BED256A6323013C6)
Полное имя : D:\Video\Рэй.2004.BDRip.720p by msltel.mkv
Формат : Matroska
Версия формата : Version 4 / Version 2
Размер файла : 7,26 Гбайт
Продолжительность : 2 ч. 32 м.
Общий поток : 6816 Кбит/сек
Название фильма : Rip by msltel
Дата кодирования : UTC 2017-02-06 03:31:32
Программа кодирования : mkvmerge v8.2.0 ('World of Adventure') 64bit
Библиотека кодирования : libebml v1.3.1 + libmatroska v1.4.2

Видео
Идентификатор : 1
Формат : AVC
Формат/Информация : Advanced Video Codec
Профиль формата : High@L4.1
Параметр CABAC формата : Да
Параметр ReFrames формата : 9 кадров
Идентификатор кодека : V_MPEG4/ISO/AVC
Продолжительность : 2 ч. 32 м.
Битрейт : 5469 Кбит/сек
Ширина : 1280 пикселей
Высота : 694 пикселя
Соотношение сторон : 1,85:1
Режим частоты кадров : Постоянный
Частота кадров : 23,976 (24000/1001) кадра/сек
Цветовое пространство : YUV
Субдискретизация насыщенности : 4:2:0
Битовая глубина : 8 бит
Тип развёртки : Прогрессивная
Бит/(Пиксели*Кадры) : 0.257
Размер потока : 5,82 Гбайт (80%)
Библиотека кодирования : x264 core 146 r2538 121396c
Настройки программы : cabac=1 / ref=9 / deblock=1:-3:-3 / analyse=0x3:0x113 / me=umh / subme=11 / psy=1 / psy_rd=1.00:0.15 / mixed_ref=1 / me_range=32 / chroma_me=1 / trellis=2 / 8x8dct=1 / cqm=0 / deadzone=21,11 / fast_pskip=0 / chroma_qp_offset=-3 / threads=6 / lookahead_threads=1 / sliced_threads=0 / nr=0 / decimate=1 / interlaced=0 / bluray_compat=0 / constrained_intra=0 / bframes=6 / b_pyramid=2 / b_adapt=2 / b_bias=0 / direct=1 / weightb=1 / open_gop=0 / weightp=2 / keyint=230 / keyint_min=23 / scenecut=40 / intra_refresh=0 / rc_lookahead=40 / rc=crf / mbtree=0 / crf=18.3 / qcomp=0.60 / qpmin=0 / qpmax=69 / qpstep=4 / vbv_maxrate=62500 / vbv_bufsize=78125 / crf_max=0.0 / nal_hrd=none / filler=0 / ip_ratio=1.40 / pb_ratio=1.30 / aq=1:1.00
Язык : English
Default : Да
Forced : Нет

Аудио #1
Идентификатор : 2
Формат : AC-3
Формат/Информация : Audio Coding 3
Расширение режима : CM (complete main)
Параметр Endianness формата : Big
Идентификатор кодека : A_AC3
Продолжительность : 2 ч. 32 м.
Вид битрейта : Постоянный
Битрейт : 448 Кбит/сек
Каналы : 6 каналов
Расположение каналов : Front: L C R, Side: L R, LFE
Частота : 48,0 КГц
Частота кадров : 31,250 кадров/сек (1536 spf)
Битовая глубина : 16 бит
Метод сжатия : С потерями
Размер потока : 488 Мбайт (7%)
Заголовок : DUB
Язык : Russian
Default : Да
Forced : Нет

Аудио #2
Идентификатор : 3
Формат : AC-3
Формат/Информация : Audio Coding 3
Расширение режима : CM (complete main)
Параметр Endianness формата : Big
Идентификатор кодека : A_AC3
Продолжительность : 2 ч. 32 м.
Вид битрейта : Постоянный
Битрейт : 448 Кбит/сек
Каналы : 6 каналов
Расположение каналов : Front: L C R, Side: L R, LFE
Частота : 48,0 КГц
Частота кадров : 31,250 кадров/сек (1536 spf)
Битовая глубина : 16 бит
Метод сжатия : С потерями
Размер потока : 488 Мбайт (7%)
Заголовок : AVO (Евгений Гранкин)
Язык : Russian
Default : Нет
Forced : Нет

Аудио #3
Идентификатор : 4
Формат : AC-3
Формат/Информация : Audio Coding 3
Расширение режима : CM (complete main)
Параметр Endianness формата : Big
Идентификатор кодека : A_AC3
Продолжительность : 2 ч. 32 м.
Вид битрейта : Постоянный
Битрейт : 448 Кбит/сек
Каналы : 6 каналов
Расположение каналов : Front: L C R, Side: L R, LFE
Частота : 48,0 КГц
Частота кадров : 31,250 кадров/сек (1536 spf)
Битовая глубина : 16 бит
Метод сжатия : С потерями
Размер потока : 488 Мбайт (7%)
Заголовок : original
Язык : English
Default : Нет
Forced : Нет

Текст #1
Идентификатор : 5
Формат : ASS
Идентификатор кодека : S_TEXT/ASS
Идентификатор кодека/Информация : Advanced Sub Station Alpha
Продолжительность : 2 ч. 30 м.
Битрейт : 5 бит/сек
Count of elements : 74
Метод сжатия : Без потерь
Размер потока : 6,28 Кбайт (0%)
Заголовок : русские (надписи)
Язык : Russian
Default : Да
Forced : Да

Текст #2
Идентификатор : 6
Формат : ASS
Идентификатор кодека : S_TEXT/ASS
Идентификатор кодека/Информация : Advanced Sub Station Alpha
Продолжительность : 2 ч. 32 м.
Битрейт : 294 бит/сек
Count of elements : 2793
Метод сжатия : Без потерь
Размер потока : 328 Кбайт (0%)
Заголовок : русские (комментарий)
Язык : Russian
Default : Нет
Forced : Нет

Текст #3
Идентификатор : 7
Формат : UTF-8
Идентификатор кодека : S_TEXT/UTF8
Идентификатор кодека/Информация : UTF-8 Plain Text
Продолжительность : 2 ч. 29 м.
Битрейт : 69 бит/сек
Count of elements : 2083
Размер потока : 75,9 Кбайт (0%)
Заголовок : английские (для слабослышащих)
Язык : English
Default : Нет
Forced : Нет

Меню
00:00:00.000 : :Chapter 01
00:00:59.059 : :Chapter 02
00:01:58.118 : :Chapter 03
00:02:57.177 : :Chapter 04
00:03:56.236 : :Chapter 05
00:04:55.294 : :Chapter 06
00:05:54.353 : :Chapter 07
00:06:53.412 : :Chapter 08
00:07:52.471 : :Chapter 09
00:08:51.530 : :Chapter 10
00:09:50.589 : :Chapter 11
00:10:49.648 : :Chapter 12
00:11:48.707 : :Chapter 13
00:12:47.766 : :Chapter 14
00:13:46.825 : :Chapter 15
00:14:45.884 : :Chapter 16
00:15:44.943 : :Chapter 17
00:16:44.002 : :Chapter 18
00:17:43.061 : :Chapter 19
00:18:42.120 : :Chapter 20
00:19:41.179 : :Chapter 21
00:20:40.238 : :Chapter 22
00:21:39.297 : :Chapter 23
00:22:38.356 : :Chapter 24
00:23:37.415 : :Chapter 25
00:24:36.474 : :Chapter 26
00:25:35.533 : :Chapter 27
00:26:34.592 : :Chapter 28
00:27:33.651 : :Chapter 29
00:28:32.710 : :Chapter 30
00:29:31.769 : :Chapter 31
00:30:30.828 : :Chapter 32
00:31:29.887 : :Chapter 33
00:32:28.946 : :Chapter 34
00:33:28.005 : :Chapter 35
00:34:27.064 : :Chapter 36
00:35:26.123 : :Chapter 37
00:36:25.182 : :Chapter 38
00:37:24.241 : :Chapter 39
00:38:23.301 : :Chapter 40
00:39:22.360 : :Chapter 41
00:40:21.419 : :Chapter 42
00:41:20.478 : :Chapter 43
00:42:19.537 : :Chapter 44
00:43:18.596 : :Chapter 45
00:44:17.655 : :Chapter 46
00:45:16.714 : :Chapter 47
00:46:15.773 : :Chapter 48
00:47:14.832 : :Chapter 49
00:48:13.891 : :Chapter 50
00:49:12.950 : :Chapter 51
00:50:12.009 : :Chapter 52
00:51:11.068 : :Chapter 53
00:52:10.127 : :Chapter 54
00:53:09.186 : :Chapter 55
00:54:08.245 : :Chapter 56
00:55:07.304 : :Chapter 57
00:56:06.363 : :Chapter 58
00:57:05.422 : :Chapter 59
00:58:04.481 : :Chapter 60
00:59:03.540 : :Chapter 61
01:00:02.599 : :Chapter 62
01:01:01.658 : :Chapter 63
01:02:00.717 : :Chapter 64
01:02:59.776 : :Chapter 65
01:03:58.835 : :Chapter 66
01:04:57.894 : :Chapter 67
01:05:56.953 : :Chapter 68
01:06:56.012 : :Chapter 69
01:07:55.071 : :Chapter 70
01:08:54.130 : :Chapter 71
01:09:53.189 : :Chapter 72
01:10:52.248 : :Chapter 73
01:11:51.307 : :Chapter 74
01:12:50.366 : :Chapter 75
01:13:49.425 : :Chapter 76
pb.wtf



Скачать Рэй через торрент http://s008.radikal.ru/i304/1702/d5/f24e2d000501.jpg Скачать фильм Рэй через торрент бесплантно в хорошем качестве Описание: История жизни великого американского музыканта Рэя Чарльза. Нищее детство, потеря брата, ранняя слепота, наркотики, женщины, 12 ... 10 10 3
Info! Золотая раздача, скачанное не засчитывается.
Торрент: Зарегистрирован [2017-02-07 09:06] · скачан: 53 раз
Статус: √ проверено
Размер: 7.26 GB
Как cкачать? Как скачать Рэй через торрент | qTorrent

% Раздел Тема Автор DL S | L
Фильмы (Blu-ray, BD-Remux, HDDVD) [ 30.89 GB ] Танкистка / Tank Girl [1995 Blu-Ray Remux 1080p] 2xMVO DVO 3xAVO 2xVO Леонид Ильич Скачать
1 | 0
Фильмы 2006-2008 [ 3.57 GB ] Огненная стена / Firewall [2006 WEB-DLRip-AVC Dub 2 x DVO 2 x AVO][Open Matte] от ExKinoRay morfyi Скачать
1 | 0
Фильмы 2017 [DVDrip, WEB-DLRip, HDrip] (DUB, MVO) [ 2.57 GB ] Драка в блоке 99 / Brawl in Cell Block 99 [2017 BDRip-AVC] Dub AVO - ExKinoRay Enigma2010 Скачать
2 | 0
Фильмы [HD 720p, 1080p] (Хороший звук DUB, MVO) [ 18.43 GB ] Рэй / Ray [2004 биография музыка BDRip 1080p by msltel] DUB AVO msltel Скачать
1 | 0

28-11-2019 20:33  

Отключить всю рекламу на сайте

    Дорогой пользователь! Огромная просьба, поблагодарите релизера, оцените раздачу и оставьте свои комментарий, если Вы скачали Рэй через торрент бесплатно! Внесите свою лепту в развитие PiratBit!
    Комментировать посты могут только пользователи прошедшие не сложную регистрацию
    Показать сообщения:    

    Рэй через торрент
    Скачать бесплатно Рэй
    Рэй скачать торрент
    Рэй смотреть онлайн
    Cкачать фильм Рэй бесплатно
    Рэй скачать торрент в хорошем качестве
    Рэй смотреть онлайн бесплатно в хорошем качестве


    Вы не можете начинать темы
    Вы не можете отвечать на сообщения
    Вы не можете редактировать свои сообщения
    Вы не можете удалять свои сообщения
    Вы не можете голосовать в опросах
    Вы не можете прикреплять файлы к сообщениям
    Вы можете скачивать файлы