новый адрес
Мега распродажа FORZA HORIZON 4 ULTIMATE+ВСЕ DLC+ОНЛАЙН всего за 499р. 349 руб. (супер цена). Внимание количество ограничено!!!

iTunes

1+1

iTunes

мы

iTunes

1

iTunes

Чернобыль

iTunes

Ральф против интернета

Лицензия

ПШазам

Лицензия

Оно 2

Лицензия

30
pack

ВАЖНО

!!Акция!!

Alien_RageХит недели

RePack

Resident Evil 21

ИГРА 18+

pack

RePack

jed

!!Акция!!

Alien_Rage

RePack

fifa19

RePack

Assassins Creed: Odyssey

RePack

NEED FOR SPEED™ PAYBACK

3 сезон

9 сезон

Бесстыжие 9 сезон

Все сериалы

все сериалы на PB.wtf

RePack

FAR CRY 5
Ребята, катастрофически не хватает 1900р. для оплаты серверов за Октябрь (всвязи с блокировками трафик упал в 3 раза), 1-2р., выручайте.
  

Дон Кихот (Григорий Козинцев) [1957, СССР, драма, DVDRip от AVP Studio] pb.wtf

Дон Кихот через торрент pb.wtf

Размер: 1.09 GB | Добавлен: 2 года 9 мес. назад | Торрент скачан:7 раз
Скачать  

07-02-2017 09:53 Дон Кихот Скачать торрент  

Дон Кихот
Страна: СССР
Производство: Ленфильм

Жанр: драма
Год выпуска: 1957
Продолжительность: 01:41:33

Перевод: Не требуется
Cубтитры: нет
Оригинальная аудиодорожка: русский

Режиссер: Григорий Козинцев

В ролях:
Николай Черкасов, Юрий Толубеев, Людмила Касьянова, Серафима Бирман, Светлана Григорьева, Василий Максимов, Виктор Колпаков, Тамилла Агамирова, Георгий Вицин, Бруно Фрейндлих, Лидия Вертинская, Галина Волчек, Ольга Викландт, Александр Бениаминов, С. Цомаев...
Об актёрах подробней

Описание:
Экранизация одноименной пьесы Е.Шварца по мотивам романа Мигеля де Сервантеса Сааведры о забавных и трогательных приключениях идальго Алонсо Кехано, влюбленного в рыцарские романы и решившего самому сделаться рыцарем и отправиться в поход, хотя времена рыцарства давно миновали...
Первый цветной широкоэкранный стереозвуковой фильм киностудии "Ленфильм"

Источник: DVD9 R5
Качество видео: DVDRip
Формат видео: AVI

Видео: 704x304 (2,35:1), 25 fps, XviD ~ 1077 kbps avg, 0.201 bit/pixel
Аудио: 48 kHz, Dolby Digital AC3 5.1, 448 kbps

Раздача от:
Общее
Полное имя : Don.Kihot.1957.DVDRip_[New-team]_by_AVP_Studio.avi
Формат : AVI
Формат/Информация : Audio Video Interleave
Размер файла : 1,09 Гбайт
Продолжительность : 1 ч. 41 м.
Общий поток : 1535 Кбит/сек
Программа кодирования : VirtualDubMod 1.5.10.3 | www.virtualdub-fr.org || (build 2550/release)
Библиотека кодирования : VirtualDubMod build 2550/release

Видео
Идентификатор : 0
Формат : MPEG-4 Visual
Профиль формата : Advanced Simple@L5
Параметр BVOP формата : 1
Параметр QPel формата : Нет
Параметр GMC формата : Без точки перехода
Параметр матрицы формата : Выборочная
Идентификатор кодека : XVID
Идентификатор кодека/Подсказка : XviD
Продолжительность : 1 ч. 41 м.
Битрейт : 1077 Кбит/сек
Ширина : 704 пикселя
Высота : 304 пикселя
Соотношение сторон : 2,35:1
Частота кадров : 25,000 кадров/сек
Цветовое пространство : YUV
Субдискретизация насыщенности : 4:2:0
Битовая глубина : 8 бит
Тип развёртки : Прогрессивная
Метод сжатия : С потерями
Бит/(Пиксели*Кадры) : 0.201
Размер потока : 782 Мбайт (70%)
Библиотека кодирования : XviD 73

Аудио
Идентификатор : 1
Формат : AC-3
Формат/Информация : Audio Coding 3
Расширение режима : CM (complete main)
Параметр Endianness формата : Big
Идентификатор кодека : 2000
Продолжительность : 1 ч. 41 м.
Вид битрейта : Постоянный
Битрейт : 448 Кбит/сек
Каналы : 6 каналов
Расположение каналов : Front: L C R, Side: L R, LFE
Частота : 48,0 КГц
Частота кадров : 31,250 кадров/сек (1536 spf)
Битовая глубина : 16 бит
Метод сжатия : С потерями
Размер потока : 325 Мбайт (29%)
Выравнивание : Разделение по промежуткам
Продолжительность промежутка : 40 мс. (1,00 видеокадр)
Время предзагрузки промежутка : 500 мс
pb.wtf



Скачать Дон Кихот через торрент http://s020.radikal.ru/i717/1702/14/f6e5a2011641.png Скачать фильм Дон Кихот через торрент бесплантно в хорошем качестве Описание:Экранизация одноименной пьесы Е.Шварца по мотивам романа Мигеля де Сервантеса Сааведры о забавных и трогательных приключениях ... 5 10 1
Info! Золотая раздача, скачанное не засчитывается.
Торрент: Зарегистрирован [2017-02-07 09:53] · скачан: 7 раз
Статус: √ проверено
Размер: 1.09 GB
Как cкачать? Как скачать Дон Кихот через торрент | qTorrent

% Раздел Тема Автор DL S | L
Фильмы (Blu-ray, BD-Remux, HDDVD) [ 34.2 GB ] Человек который убил Дон Кихота / The Man Who Killed Don Quixote [2018 BDRemux 1080p] killermax2013 Скачать
2 | 0
Фильмы 2018 [DVDrip, WEB-DLRip, HDrip] (DUB, MVO) [ 774 MB ] Человек который убил Дон Кихота / The Man Who Killed Don Quixote [2018 HDRip] bober100 Скачать
1 | 0
Фильмы [HD 720p, 1080p] (Хороший звук DUB, MVO) [ 13.84 GB ] Человек который убил Дон Кихота / The Man Who Killed Don Quixote [2018 BDRip 1080p] sheker187 Скачать
8 | 0
Фильмы 2018 [DVDrip, WEB-DLRip, HDrip] (DUB, MVO) [ 1.46 GB ] Человек который убил Дон Кихота / The Man Who Killed Don Quixote [2018 BDRip] - Twi7ter Скачать
4 | 0
Фильмы 2018 [DVDrip, WEB-DLRip, HDrip] (DUB, MVO) [ 2.12 GB ] Человек который убил Дон Кихота / The Man Who Killed Don Quixote [2018 BDRip] - Twi7ter Скачать
2 | 0
Фильмы 2018 [DVDrip, WEB-DLRip, HDrip] (DUB, MVO) [ 1.46 GB ] Человек который убил Дон Кихота / The Man Who Killed Don Quixote [2018 BDRip ] Skandar2019 Скачать
5 | 0
Фильмы 2018 [DVDrip, WEB-DLRip, HDrip] (DUB, MVO) [ 2.43 GB ] Человек который убил Дон Кихота / The Man Who Killed Don Quixote [2018 BDRip-AVC] sheker187 Скачать
2 | 0


>> Регистрируемся здесь <<






Отзывы и комментарии о схеме читаем и пишем здесь: ---> Отзывы и комментарии о схеме

Новые благодарочки в телеграм довольных пользователей:
скриншот   скриншот   скриншот   скриншот   скриншот
    Дорогой пользователь! Огромная просьба, поблагодарите релизера, оцените раздачу и оставьте свои комментарий, если Вы скачали Дон Кихот через торрент бесплатно! Внесите свою лепту в развитие PiratBit!
    Комментировать посты могут только пользователи прошедшие не сложную регистрацию
    Показать сообщения:    

    Дон Кихот через торрент
    Скачать бесплатно Дон Кихот
    Дон Кихот скачать торрент
    Дон Кихот смотреть онлайн
    Cкачать фильм Дон Кихот бесплатно
    Дон Кихот скачать торрент в хорошем качестве
    Дон Кихот смотреть онлайн бесплатно в хорошем качестве


    Вы не можете начинать темы
    Вы не можете отвечать на сообщения
    Вы не можете редактировать свои сообщения
    Вы не можете удалять свои сообщения
    Вы не можете голосовать в опросах
    Вы не можете прикреплять файлы к сообщениям
    Вы можете скачивать файлы