Ссылка на приватное зеркало нашего сайта всего за 1$. Внимание количество ограничено!!!

2 сезон

iTunes

1 сезон

1

2 сезон

2 сезон

iTunes

1 сезон

RePack

30

Ultimate

ВАЖНО

ИГРА 18+

pack

RePack

MK11
pack

Забери бонус

RePack

jed

!!Акция!!

Alien_Rage

RePack

fifa19

RePack

Assassins Creed: Odyssey

RePack

NEED FOR SPEED™ PAYBACK

4 сезон

9 сезон

Бесстыжие 9 сезон

Все сериалы

все сериалы на PB.wtf

RePack

FAR CRY 5
  

24 часа: Наследие / 24: Legacy / Сезон: 1 / Серии 1-2 из 12 (Джон Кассар, Стивен Хопкинс) [2017, Боевик, детектив, драма, криминал, WEB-DL 1080p] [MVO] (FOX) pb.wtf

24 часа: Наследие через торрент pb.wtf

Размер: 3.61 GB | Добавлен: 3 года 9 мес. назад | Торрент скачан:19 раз
Скачать  

07-02-2017 20:51 24 часа: Наследие Скачать торрент  

24 часа: Наследие / 24: Legacy
Год выпуска: 2017
Страна: США
Жанр: фантастика, детектив
Продолжительность: ~00:45:00
Перевод: Профессиональный (многоголосый закадровый) FOX

Режиссёр: Джон Кассар, Бронуэн Хьюз, Стивен Хопкинс

В ролях: Кори Хоукинс, Чарли Хофхаймер, Миранда Отто, Рафаэль Аклок, Дэн Букатинский, Анна Диоп и др.

Описание: «24 часа: Наследие» — американский телесериал, созданный для канала Fox. Сериал является спин-оффом «24 часов», который был создан Джоэлом Сурноу и Робертом Кокраном. Сериал состоит из 12 эпизодов и повествует о жизни героя войны Эрике Картере, в исполнении Кори Хоукинса, используя в качестве повествования формат реального времени. Миранда Отто исполняет роль Ребекки Инграм, бывшую главу ныне возрождённого контр-террористического отдела в Вашингтоне.



Качество: WEB-DL 1080p
Формат: MKV
Видео: MPEG-4 AVC, 1920x1080, ~5195 kbps, 23.976 fps
Аудио: AC3, 192 kbps, 2 ch, 48 kHz [Rus]
Аудио 2: AC3, 384 kbps, 6 ch, 48 kHz [Eng]
Субтитры: Отсутствуют
Общее
Уникальный идентификатор : 231808795331529531389645102175666402267 (0xAE64C001F98A050F824AE8AB524173DB)
Полное имя : D:\Загрузки\24.Legacy.S01.FOX.WEB-DL.1080p\24.Legacy.S01E01.FOX.WEB-DL.1080p.mkv
Формат : Matroska
Версия формата : Version 4 / Version 2
Размер файла : 1,87 Гбайт
Продолжительность : 46 м. 27 с.
Общий поток : 5769 Кбит/сек
Название фильма : 24.Legacy.S01E01.1080p.WEB-DL.DD5.1.H264-RARBG
Дата кодирования : UTC 2017-02-07 17:05:26
Программа кодирования : mkvmerge v8.3.0 ('Over the Horizon') 64bit
Библиотека кодирования : libebml v1.3.1 + libmatroska v1.4.2
Обложка : Yes
Attachments : small_cover.jpg / small_cover_land.jpg / cover.jpg / cover_land.jpg

Видео
Идентификатор : 1
Формат : AVC
Формат/Информация : Advanced Video Codec
Профиль формата : High@L4
Параметр CABAC формата : Да
Параметр ReFrames формата : 4 кадра
Идентификатор кодека : V_MPEG4/ISO/AVC
Продолжительность : 46 м. 27 с.
Битрейт : 5190 Кбит/сек
Ширина : 1920 пикселей
Высота : 1080 пикселей
Соотношение сторон : 16:9
Режим частоты кадров : Постоянный
Частота кадров : 23,976 (23976/1000) кадра/сек
Цветовое пространство : YUV
Субдискретизация насыщенности : 4:2:0
Битовая глубина : 8 бит
Тип развёртки : Прогрессивная
Бит/(Пиксели*Кадры) : 0.104
Размер потока : 1,68 Гбайт (90%)
Заголовок : 24.Legacy.S01E01.1080p.WEB-DL.DD5.1.H264-RARBG
Язык : English
Default : Да
Forced : Нет
Цветовой диапазон : Limited
Основные цвета : BT.709
Характеристики трансфера : BT.709
Коэффициенты матрицы : BT.709

Аудио #1
Идентификатор : 2
Формат : AC-3
Формат/Информация : Audio Coding 3
Расширение режима : CM (complete main)
Параметр Endianness формата : Big
Идентификатор кодека : A_AC3
Продолжительность : 46 м. 27 с.
Вид битрейта : Постоянный
Битрейт : 192 Кбит/сек
Каналы : 2 канала
Расположение каналов : Front: L R
Частота : 48,0 КГц
Частота кадров : 31,250 кадров/сек (1536 spf)
Битовая глубина : 16 бит
Метод сжатия : С потерями
Размер потока : 63,8 Мбайт (3%)
Язык : Russian
Default : Да
Forced : Нет

Аудио #2
Идентификатор : 3
Формат : AC-3
Формат/Информация : Audio Coding 3
Расширение режима : CM (complete main)
Параметр Endianness формата : Big
Идентификатор кодека : A_AC3
Продолжительность : 46 м. 27 с.
Вид битрейта : Постоянный
Битрейт : 384 Кбит/сек
Каналы : 6 каналов
Расположение каналов : Front: L C R, Side: L R, LFE
Частота : 48,0 КГц
Частота кадров : 31,250 кадров/сек (1536 spf)
Битовая глубина : 16 бит
Метод сжатия : С потерями
Размер потока : 128 Мбайт (7%)
Заголовок : 24.Legacy.S01E01.1080p.WEB-DL.DD5.1.H264-RARBG
Язык : English
Default : Нет
Forced : Нет
Внимание! Раздача ведётся путём добавления новых серий; при каждом добавлении создаётся новый торрент. Чтобы начать докачку новой серии, пользователям необходимо сделать следующее:
(1) остановить скачивание,
(2) удалить старый торрент у себя из клиента (старые серии удалять не надо),
(3) скачать новый торрент и запустить его у себя в клиенте вместо старого, при этом указать клиенту путь в старую папку куда и должно происходить скачивание новых серий.
Ваш клиент при этом должен произвести хеширование (проверку) старой папки (если не производит сам - помогите ему сделать это), и будет докачивать только те серии которых у вас ещё нет. Старые серии при этом не удаляются, а продолжают раздаваться!
Eсли вы уже удалили старые серии, то предотвратить повторную закачку старых серий можно, отжав галочку в соответствующих местах при запуске нового торрента. По возможности, желательно не удалять старые серии как можно дольше чтобы релизёр не столько продолжал раздавать старые серии, а смог сконцентрироваться на новых.
pb.wtf



Скачать 24 часа: Наследие через торрент http://i84.fastpic.ru/big/2016/1030/0a/0d987b9d5f5efa72f3681f7fae0ea20a.png Скачать фильм 24 часа: Наследие через торрент бесплантно в хорошем качестве Описание: «24 часа: Наследие» — американский телесериал, созданный для канала Fox. Сериал является спин-оффом «24 часов», который был ... 5 10 1
Торрент: Зарегистрирован [2017-02-07 20:51] · скачан: 19 раз
Статус: √ проверено
Размер: 3.61 GB
Как cкачать? Как скачать 24 часа: Наследие через торрент | qTorrent

28-11-2019 20:33  

Отключить всю рекламу на сайте

    Дорогой пользователь! Огромная просьба, поблагодарите релизера, оцените раздачу и оставьте свои комментарий, если Вы скачали 24 часа: Наследие через торрент бесплатно! Внесите свою лепту в развитие PiratBit!
    Комментировать посты могут только пользователи прошедшие не сложную регистрацию
    Показать сообщения:    

    24 часа: Наследие через торрент
    Скачать бесплатно 24 часа: Наследие
    24 часа: Наследие скачать торрент
    24 часа: Наследие смотреть онлайн
    Cкачать фильм 24 часа: Наследие бесплатно
    24 часа: Наследие скачать торрент в хорошем качестве
    24 часа: Наследие смотреть онлайн бесплатно в хорошем качестве


    Вы не можете начинать темы
    Вы не можете отвечать на сообщения
    Вы не можете редактировать свои сообщения
    Вы не можете удалять свои сообщения
    Вы не можете голосовать в опросах
    Вы не можете прикреплять файлы к сообщениям
    Вы можете скачивать файлы