Ссылка на приватное зеркало нашего сайта всего за 1$. Внимание количество ограничено!!!

2 сезон

iTunes

1 сезон

1

2 сезон

2 сезон

iTunes

1 сезон

RePack

30

Ultimate

ВАЖНО

ИГРА 18+

pack

RePack

MK11
pack

Забери бонус

RePack

jed

!!Акция!!

Alien_Rage

RePack

fifa19

RePack

Assassins Creed: Odyssey

RePack

NEED FOR SPEED™ PAYBACK

4 сезон

9 сезон

Бесстыжие 9 сезон

Все сериалы

все сериалы на PB.wtf

RePack

FAR CRY 5
  

Тренировочный день / Training Day / Сезон: 1 / Серии 1-13 из 13 (Стив Эделсон, Мэтт Эрл Бисли, Джеффри Дж. Хант) [2017, Криминал, WEB-DLRip] [MVO] (Jaskier) pb.wtf

Тренировочный день через торрент pb.wtf

Размер: 6.98 GB | Добавлен: 3 года 6 мес. назад | Торрент скачан:79 раз
Скачать  

07-02-2017 22:15 Тренировочный день Скачать торрент  


Тренировочный день | Training Day

• Год выпуска: 2017
• Страна: США
• Жанр: криминал
• Продолжительность: ~ 00:43:00
• Перевод: Профессиональный (многоголосый закадровый) | Jaskier
• Режиссёр: Стив Эделсон, Мэтт Эрл Бисли, Джеффри Дж. Хант
• В ролях: Джастин Корнвэлл, Билл Пэкстон, Дрю Ван Экер, Катрина Ло, Обри Фицджералд, Джули Бенц, Шеннон Браун, Тайлер Кук, Лекс Скотт Дэвис, Жоаким ди Алмейда и др.
• Описание: Сюжет окутан вокруг голливудской «мадам», владелицы борделя Холли МакКейб и ее полицейского окружения.


• Качество: WEB-DLRip
• Формат: AVI
• Видео: XviD, ~ 1500 kbps, 720x400 (16:9), 23,976 fps
• Аудио 1: MP3, 48,0 КГц, 2 ch, 128 kbps - Rus
• Аудио 2: MP3, 48,0 КГц, 2 ch, 128 kbps - Eng
• Субтитры: отсутствуют
Переведено и озвучено студией JASKIER
Общее
Полное имя                               : D:\загрузки\Training.Day (Season 01) Jaskier\Training.Day.S01E01.WEB-DLRip.Rus.Eng.Jaskier.avi
Формат                                   : AVI
Формат/Информация                        : Audio Video Interleave
Размер файла                             : 550 Мбайт
Продолжительность                        : 43 м. 12 с.
Общий поток                              : 1781 Кбит/сек
Программа кодирования                    : VirtualDubMod 1.5.10.3 | www.virtualdub-fr.org || (build 2550/release)
Библиотека кодирования                   : VirtualDubMod build 2550/release
Видео
Идентификатор                            : 0
Формат                                   : MPEG-4 Visual
Профиль формата                          : Advanced Simple@L5
Параметр BVOP формата                    : 1
Параметр QPel формата                    : Нет
Параметр GMC формата                     : Без точки перехода
Параметр матрицы формата                 : Default (MPEG)
Идентификатор кодека                     : XVID
Идентификатор кодека/Подсказка           : XviD
Продолжительность                        : 43 м. 12 с.
Битрейт                                  : 1511 Кбит/сек
Ширина                                   : 720 пикселей
Высота                                   : 400 пикселей
Соотношение сторон                       : 16:9
Частота кадров                           : 23,976 (24000/1001) кадра/сек
Цветовое пространство                    : YUV
Субдискретизация насыщенности            : 4:2:0
Битовая глубина                          : 8 бит
Тип развёртки                            : Прогрессивная
Метод сжатия                             : С потерями
Бит/(Пиксели*Кадры)                      : 0.219
Размер потока                            : 467 Мбайт (85%)
Библиотека кодирования                   : XviD 73
Аудио #1
Идентификатор                            : 1
Формат                                   : MPEG Audio
Версия формата                           : Version 1
Профиль формата                          : Layer 3
Режим                                    : Joint stereo
Расширение режима                        : MS Stereo
Идентификатор кодека                     : 55
Идентификатор кодека/Подсказка           : MP3
Продолжительность                        : 43 м. 12 с.
Вид битрейта                             : Постоянный
Битрейт                                  : 128 Кбит/сек
Каналы                                   : 2 канала
Частота                                  : 48,0 КГц
Метод сжатия                             : С потерями
Размер потока                            : 39,6 Мбайт (7%)
Выравнивание                             : Соединение по промежуткам
Продолжительность промежутка             : 42  мс. (1,00 видеокадр)
Время предзагрузки промежутка            : 504  мс.
Аудио #2
Идентификатор                            : 2
Формат                                   : MPEG Audio
Версия формата                           : Version 1
Профиль формата                          : Layer 3
Режим                                    : Joint stereo
Расширение режима                        : MS Stereo
Идентификатор кодека                     : 55
Идентификатор кодека/Подсказка           : MP3
Продолжительность                        : 43 м. 12 с.
Вид битрейта                             : Постоянный
Битрейт                                  : 128 Кбит/сек
Каналы                                   : 2 канала
Частота                                  : 48,0 КГц
Метод сжатия                             : С потерями
Размер потока                            : 39,6 Мбайт (7%)
Выравнивание                             : Соединение по промежуткам
Продолжительность промежутка             : 42  мс. (1,00 видеокадр)
Время предзагрузки промежутка            : 504  мс.
Когда раздача ведётся путём добавления новых серий, при каждом добавлении создётся новый торрент. Чтобы начать докачку новой серии, пользователям необходимо сделать следующее:
(1) остановить скачивание,
(2) удалить старый торрент у себя из клиента (старые серии удалять не надо),
(3) скачать новый торрент и запустить его у себя в клиенте вместо старого, при этом указать клиенту путь в старую папку, куда и должно происходить скачивание новых серий.
Ваш клиент при этом должен произвести хеширование (проверку) старой папки (если не производит сам - помогите ему сделать это), и будет докачивать только те серии, которых у вас ещё нет. Старые серии при этом не удаляются, а продолжают раздаваться!
Eсли вы уже удалили старые серии, то предотвратить повторную закачку старых серий можно, отжав галочку в соответсвующих местах при запуске нового торрента. По возможности, желательно не удалять старые серии как можно дольше, чтобы релизёр не столько продолжал раздавать старые серии, а смог сконцентрироваться на новых.
pb.wtf



Скачать Тренировочный день через торрент http://i89.fastpic.ru/big/2017/0207/bb/a91682b6162d0407dbbb2e3d3f5e73bb.jpg Скачать фильм Тренировочный день через торрент бесплантно в хорошем качестве Описание: Сюжет окутан вокруг голливудской «мадам», владелицы борделя Холли МакКейб и ее полицейского окружения. • ... 10 10 4
Торрент: Зарегистрирован [2017-05-26 13:28] · скачан: 79 раз
Статус: √ проверено
Размер: 6.98 GB
Как cкачать? Как скачать Тренировочный день через торрент | qTorrent

% Раздел Тема Автор DL S | L
Зарубежные сериалы [ 18.39 GB ] Тренировочный день / Training Day / Сезон: 1 / Серии 1-13 из 13 [2017 WEB-DL 720p] [MVO] killermax2013 Скачать
1 | 0
Зарубежные сериалы [ 365 MB ] Тренировочный день / Training Day / Сезон: 1 / Серии 1 из 13 [2017 HDTVRip] [MVO] killermax2013 Скачать
1 | 0


Последний раз редактировалось: killermax2013 (2017-05-26 13:27), всего редактировалось 2 раз(а)

28-11-2019 20:33  

Отключить всю рекламу на сайте

12-02-2017 08:20 Тренировочный день Скачать торрент  

+2pb.wtf



26-02-2017 18:57 Тренировочный день Скачать торрент  

+3-4pb.wtf



26-02-2017 19:24 Тренировочный день Скачать торрент  

killermax2013,
посмотришь отпиши мне как сериалpb.wtf



26-02-2017 20:30 Тренировочный день Скачать торрент  

White Smoke писал(а):

killermax2013,
посмотришь отпиши мне как сериал

окpb.wtf



26-05-2017 13:28 Тренировочный день Скачать торрент  

+7-13pb.wtf



    Дорогой пользователь! Огромная просьба, поблагодарите релизера, оцените раздачу и оставьте свои комментарий, если Вы скачали Тренировочный день через торрент бесплатно! Внесите свою лепту в развитие PiratBit!
    Комментировать посты могут только пользователи прошедшие не сложную регистрацию
    Показать сообщения:    

    Тренировочный день через торрент
    Скачать бесплатно Тренировочный день
    Тренировочный день скачать торрент
    Тренировочный день смотреть онлайн
    Cкачать фильм Тренировочный день бесплатно
    Тренировочный день скачать торрент в хорошем качестве
    Тренировочный день смотреть онлайн бесплатно в хорошем качестве


    Вы не можете начинать темы
    Вы не можете отвечать на сообщения
    Вы не можете редактировать свои сообщения
    Вы не можете удалять свои сообщения
    Вы не можете голосовать в опросах
    Вы не можете прикреплять файлы к сообщениям
    Вы можете скачивать файлы