>

5.6

iTunes

6.1

MVO

5.7

MVO

1

7.4

1 сезон

6.8

iTunes

7.2

1 сезон

13

6.7

1 сезон

8.3

RePack

30

Deluxe

pack

9.9

Лицензия

ВАЖНО

ИГРА 18+

pack

7.3

RePack

MK11

7.7

RePack

jed

7.8

RePack

fifa19

8.5

RePack

RDR2

RePack

NEED FOR SPEED™ PAYBACK

4 сезон

9 сезон

Бесстыжие 9 сезон

Все сериалы

все сериалы на PB.wtf

RePack

FAR CRY 5

Anonymous, добрый вечер, мы катастрофически не успеваем собрать деньги на оплату серверов, помогите нам пожалуйста 5,10,15р., для нас важна любая помощь . В качестве благодарности мы отключим Вам всю рекламу на сайте (укажите свой ник в строку Ваше имя)!

×
  
Magnet ссылка

Тихий Дон / Серии: 1-3 из 3 (Сергей Герасимов) [1957-1958, СССР, драма, военный, DVDRip от AVP Studio] pb.wtf

Тихий Дон через торрент pb.wtf

Размер: 4.37 GB | Добавлен: 4 года 7 мес. назад | Торрент скачан:28 раз
Смотреть онлайн Тихий Дон | Скачать    Ребята, помогите собрать деньги на оплату серверов!!!

08-02-2017 09:24 Тихий Дон Скачать торрент  

Тихий Дон
Страна: СССР
Производство: Киностудия им. М. Горького

Жанр: драма, военный
Год выпуска: 1957-1958
Продолжительность: 05:30:34 (01:43:56; 01:50:11; 01:56:27)

Перевод: не требуется
Субтитры: нет
Оригинальная аудиодорожка: русский

Режиссер: Сергей Герасимов

В ролях:
Даниил Ильченко, Анастасия Филиппова (Горина), Пётр Глебов, Николай Смирнов, Людмила Хитяева, Наталья Архангельская, Алексей Благовестов, Элина Быстрицкая, Зинаида Кириенко, Александр Жуков, Александра Денисова, Борис Новиков, Александр Карпов, Елена Максимова, Геннадий Карякин, Валентина Хмара, Александр Шатов, Игорь Дмитриев, Виллиан Шатуновский, Александр Титов, Вадим Захарченко, Михаил Васильев, Дмитрий Капка, Сергей Юртайкин, Пётр Любешкин, Пётр Чернов, Николай Муравьёв, Борис Муравьев, Михаил Глузский, Виктор Бубнов, Николай Тямин...
Полный список актёров

Описание:
Бессмертный роман Михаила Шолохова, отмеченный Нобелевской премией и вошедший в число наиболее ярких произведений мировой литературы, рассказывает о трагической ситуации, сложившейся в России в начале ХХ века, о сломанных Первой Мировой войной и революцией судьбах людей, о крушении устоев и идеалов донского казачества, о личной трагедии главного героя произведения - Григория Мелехова.

Исходник: 3хDVD9 R5
Качество видео: DVDRip
Формат видео: AVI

Видео: 688х512 (4:3), 25 fps, XviD ~ 1434 kbps avg, 0.163 bit/pixel
Аудио: 48 kHz, Dolby Digital AC3 5.1, 448 kbps Русский
Аудио: 48 kHz, Dolby Digital AC3 5.1, 448 kbps Английский (внешняя ссылка)
Аудио: 48 kHz, Dolby Digital AC3 5.1, 448 kbps Французский (внешняя ссылка)

Раздача от:
Общее
Полное имя : Tihiy.Don.1957-1958.DVDRip_[New-team]_by_AVP_Studio\01.avi
Формат : AVI
Формат/Информация : Audio Video Interleave
Размер файла : 1,37 Гбайт
Продолжительность : 1 ч. 43 м.
Общий поток : 1892 Кбит/сек
Программа кодирования : VirtualDubMod 1.5.10.3 | www.virtualdub-fr.org || (build 2550/release)
Библиотека кодирования : VirtualDubMod build 2550/release

Видео
Идентификатор : 0
Формат : MPEG-4 Visual
Профиль формата : Advanced Simple@L5
Параметр BVOP формата : 1
Параметр QPel формата : Нет
Параметр GMC формата : Без точки перехода
Параметр матрицы формата : Выборочная
Идентификатор кодека : XVID
Идентификатор кодека/Подсказка : XviD
Продолжительность : 1 ч. 43 м.
Битрейт : 1434 Кбит/сек
Ширина : 688 пикселей
Высота : 512 пикселей
Соотношение сторон : 4:3
Частота кадров : 25,000 кадров/сек
Цветовое пространство : YUV
Субдискретизация насыщенности : 4:2:0
Битовая глубина : 8 бит
Тип развёртки : Прогрессивная
Метод сжатия : С потерями
Бит/(Пиксели*Кадры) : 0.163
Размер потока : 1,04 Гбайт (76%)
Библиотека кодирования : XviD 73

Аудио
Идентификатор : 1
Формат : AC-3
Формат/Информация : Audio Coding 3
Расширение режима : CM (complete main)
Параметр Endianness формата : Big
Идентификатор кодека : 2000
Продолжительность : 1 ч. 43 м.
Вид битрейта : Постоянный
Битрейт : 448 Кбит/сек
Каналы : 6 каналов
Расположение каналов : Front: L C R, Side: L R, LFE
Частота : 48,0 КГц
Частота кадров : 31,250 кадров/сек (1536 spf)
Битовая глубина : 16 бит
Метод сжатия : С потерями
Размер потока : 333 Мбайт (24%)
Выравнивание : Разделение по промежуткам
Продолжительность промежутка : 40 мс. (1,00 видеокадр)
Время предзагрузки промежутка : 500 мс
pb.wtf



Скачать Тихий Дон через торрент http://s011.radikal.ru/i318/1702/b2/68d485b8513f.png Скачать, смотреть онлайн Тихий Дон бесплантно в хорошем качестве Описание:Бессмертный роман Михаила Шолохова, отмеченный Нобелевской премией и вошедший в число наиболее ярких произведений мировой ... 10 10 1
Info! Золотая раздача, скачанное не засчитывается.
Торрент: Зарегистрирован [2017-02-08 09:24] · скачан: 28 раз
Статус: √ проверено
Размер: 4.37 GB
Как cкачать? Как скачать Тихий Дон через торрент | UTorrent

% Раздел Тема Автор DL S | L
Кино СССР [ 4.37 GB ] Тихий Дон / Серии: 1-3 из 3 [1957-1958 СССР военный DVDRip-AVC от AVP Studio] AVP Studio Скачать
1 | 0
Кино СССР [ 2.91 GB ] Тихий Дон / Серии: 1-3 из 3 [1957-1958 СССР военный DVDRip от AVP Studio] AVP Studio Скачать
1 | 0

28-11-2019 20:33  

Отключить всю рекламу на сайте

    Дорогой пользователь! Огромная просьба, поблагодарите релизера, оцените раздачу и оставьте свои комментарий, если Вы скачали Тихий Дон через торрент бесплатно!
    Комментировать посты могут только пользователи прошедшие не сложную регистрацию
    Показать сообщения:    

    Тихий Дон через торрент
    Скачать бесплатно Тихий Дон
    Тихий Дон скачать торрент
    Тихий Дон смотреть онлайн
    Cкачать фильм Тихий Дон бесплатно
    Тихий Дон скачать торрент в хорошем качестве
    Тихий Дон смотреть онлайн бесплатно в хорошем качестве


    Вы не можете начинать темы
    Вы не можете отвечать на сообщения
    Вы не можете редактировать свои сообщения
    Вы не можете удалять свои сообщения
    Вы не можете голосовать в опросах
    Вы не можете прикреплять файлы к сообщениям
    Вы можете скачивать файлы