новый адрес
Мега распродажа FORZA HORIZON 4 ULTIMATE+ВСЕ DLC+ОНЛАЙН всего за 499р. 349 руб. (супер цена). Внимание количество ограничено!!!

iTunes

1+1

iTunes

мы

iTunes

1

iTunes

Чернобыль

iTunes

Ральф против интернета

Лицензия

ПШазам

Лицензия

Игра престолов

Лицензия

30
pack

ВАЖНО

!!Акция!!

Alien_RageХит недели

RePack

Resident Evil 21

ИГРА 18+

pack

RePack

Metro:Exodus

!!Акция!!

Alien_Rage

RePack

fifa19

RePack

Assassins Creed: Odyssey

RePack

NEED FOR SPEED™ PAYBACK

3 сезон

9 сезон

Бесстыжие 9 сезон

Все сериалы

все сериалы на PB.wtf

RePack

FAR CRY 5
Ребята, катастрофически не хватает 1900р. для оплаты серверов за Октябрь (всвязи с блокировками трафик упал в 3 раза), 1-2р., выручайте.
  

Тихий Дон / Серии: 1-3 из 3 (Сергей Герасимов) [1957-1958, СССР, драма, военный, DVDRip от AVP Studio] pb.wtf

Тихий Дон через торрент pb.wtf

Размер: 2.91 GB | Добавлен: 2 года 9 мес. назад | Торрент скачан:83 раза
Скачать  

08-02-2017 09:25 Тихий Дон Скачать торрент  

Тихий Дон
Страна: СССР
Производство: Киностудия им. М. Горького

Жанр: драма, военный
Год выпуска: 1957-1958
Продолжительность: 05:30:34 (01:43:56; 01:50:11; 01:56:27)

Перевод: не требуется
Субтитры: нет
Оригинальная аудиодорожка: русский

Режиссер: Сергей Герасимов

В ролях:
Даниил Ильченко, Анастасия Филиппова (Горина), Пётр Глебов, Николай Смирнов, Людмила Хитяева, Наталья Архангельская, Алексей Благовестов, Элина Быстрицкая, Зинаида Кириенко, Александр Жуков, Александра Денисова, Борис Новиков, Александр Карпов, Елена Максимова, Геннадий Карякин, Валентина Хмара, Александр Шатов, Игорь Дмитриев, Виллиан Шатуновский, Александр Титов, Вадим Захарченко, Михаил Васильев, Дмитрий Капка, Сергей Юртайкин, Пётр Любешкин, Пётр Чернов, Николай Муравьёв, Борис Муравьев, Михаил Глузский, Виктор Бубнов, Николай Тямин...
Полный список актёров

Описание:
Бессмертный роман Михаила Шолохова, отмеченный Нобелевской премией и вошедший в число наиболее ярких произведений мировой литературы, рассказывает о трагической ситуации, сложившейся в России в начале ХХ века, о сломанных Первой Мировой войной и революцией судьбах людей, о крушении устоев и идеалов донского казачества, о личной трагедии главного героя произведения - Григория Мелехова.

Исходник: 3хDVD9 R5
Качество видео: DVDRip
Формат видео: AVI

Видео: 640х480 (4:3), 25 fps, XviD ~ 1121 kbps avg, 0.146 bit/pixel
Аудио: 48 kHz, MP3 2.0, 128 kbps

Раздача от:
Общее
Полное имя : Tihiy.Don.1957-1958.DVDRip-2.91_[New-team]_by_AVP_Studio\02.avi
Формат : AVI
Формат/Информация : Audio Video Interleave
Размер файла : 992 Мбайт
Продолжительность : 1 ч. 50 м.
Общий поток : 1259 Кбит/сек
Программа кодирования : VirtualDubMod 1.5.10.3 | www.virtualdub-fr.org || (build 2550/release)
Библиотека кодирования : VirtualDubMod build 2550/release

Видео
Идентификатор : 0
Формат : MPEG-4 Visual
Профиль формата : Advanced Simple@L5
Параметр BVOP формата : 1
Параметр QPel формата : Нет
Параметр GMC формата : Без точки перехода
Параметр матрицы формата : Выборочная
Идентификатор кодека : XVID
Идентификатор кодека/Подсказка : XviD
Продолжительность : 1 ч. 50 м.
Битрейт : 1121 Кбит/сек
Ширина : 640 пикселей
Высота : 480 пикселей
Соотношение сторон : 4:3
Частота кадров : 25,000 кадров/сек
Цветовое пространство : YUV
Субдискретизация насыщенности : 4:2:0
Битовая глубина : 8 бит
Тип развёртки : Прогрессивная
Метод сжатия : С потерями
Бит/(Пиксели*Кадры) : 0.146
Размер потока : 883 Мбайт (89%)
Библиотека кодирования : XviD 73

Аудио
Идентификатор : 1
Формат : MPEG Audio
Версия формата : Version 1
Профиль формата : Layer 3
Идентификатор кодека : 55
Идентификатор кодека/Подсказка : MP3
Продолжительность : 1 ч. 50 м.
Вид битрейта : Постоянный
Битрейт : 128 Кбит/сек
Каналы : 2 канала
Частота : 48,0 КГц
Метод сжатия : С потерями
Размер потока : 101 Мбайт (10%)
Выравнивание : Соединение по промежуткам
Продолжительность промежутка : 40 мс. (1,00 видеокадр)
Время предзагрузки промежутка : 504 мс.
Библиотека кодирования : LAME3.99r
Настройки программы : -m s -V 4 -q 2 -lowpass 17 -b 128
pb.wtf



Скачать Тихий Дон через торрент http://s011.radikal.ru/i318/1702/b2/68d485b8513f.png Скачать фильм Тихий Дон через торрент бесплантно в хорошем качестве Описание:Бессмертный роман Михаила Шолохова, отмеченный Нобелевской премией и вошедший в число наиболее ярких произведений мировой ... 10 10 1
Info! Золотая раздача, скачанное не засчитывается.
Торрент: Зарегистрирован [2017-02-08 09:25] · скачан: 83 раз
Статус: √ проверено
Размер: 2.91 GB
Как cкачать? Как скачать Тихий Дон через торрент | qTorrent

% Раздел Тема Автор DL S | L
Кино СССР [ 4.37 GB ] Тихий Дон / Серии: 1-3 из 3 [1957-1958 СССР военный DVDRip-AVC от AVP Studio] AVP Studio Скачать
2 | 0
Кино СССР [ 4.37 GB ] Тихий Дон / Серии: 1-3 из 3 [1957-1958 СССР военный DVDRip от AVP Studio] AVP Studio Скачать
1 | 0


>> Регистрируемся здесь <<






Отзывы и комментарии о схеме читаем и пишем здесь: ---> Отзывы и комментарии о схеме

Новые благодарочки в телеграм довольных пользователей:
скриншот   скриншот   скриншот   скриншот   скриншот
    Дорогой пользователь! Огромная просьба, поблагодарите релизера, оцените раздачу и оставьте свои комментарий, если Вы скачали Тихий Дон через торрент бесплатно! Внесите свою лепту в развитие PiratBit!
    Комментировать посты могут только пользователи прошедшие не сложную регистрацию
    Показать сообщения:    

    Тихий Дон через торрент
    Скачать бесплатно Тихий Дон
    Тихий Дон скачать торрент
    Тихий Дон смотреть онлайн
    Cкачать фильм Тихий Дон бесплатно
    Тихий Дон скачать торрент в хорошем качестве
    Тихий Дон смотреть онлайн бесплатно в хорошем качестве


    Вы не можете начинать темы
    Вы не можете отвечать на сообщения
    Вы не можете редактировать свои сообщения
    Вы не можете удалять свои сообщения
    Вы не можете голосовать в опросах
    Вы не можете прикреплять файлы к сообщениям
    Вы можете скачивать файлы