новый адрес
Мега распродажа FORZA HORIZON 4 ULTIMATE+ВСЕ DLC+ОНЛАЙН всего за 499р. 349 руб. (супер цена). Внимание количество ограничено!!!

iTunes

1+1

iTunes

мы

iTunes

1

iTunes

Чернобыль

iTunes

Ральф против интернета

Лицензия

ПШазам

Лицензия

Игра престолов

Лицензия

30
pack

ВАЖНО

!!Акция!!

Alien_RageХит недели

RePack

Resident Evil 21

ИГРА 18+

pack

RePack

Metro:Exodus

!!Акция!!

Alien_Rage

RePack

fifa19

RePack

Assassins Creed: Odyssey

RePack

NEED FOR SPEED™ PAYBACK

3 сезон

9 сезон

Бесстыжие 9 сезон

Все сериалы

все сериалы на PB.wtf

RePack

FAR CRY 5
Ребята, катастрофически не хватает 1900р. для оплаты серверов за Октябрь (всвязи с блокировками трафик упал в 3 раза), 1-2р., выручайте.
  

Тихий Дон / Серии: 1-3 из 3 (Сергей Герасимов) [1957-1958, СССР, драма, военный, DVDRip-AVC от AVP Studio] pb.wtf

Тихий Дон через торрент pb.wtf

Размер: 4.37 GB | Добавлен: 2 года 9 мес. назад | Торрент скачан:124 раза
Скачать  

08-02-2017 09:26 Тихий Дон Скачать торрент  

Тихий Дон
Страна: СССР
Производство: Киностудия им. М. Горького

Жанр: драма, военный
Год выпуска: 1957-1958
Продолжительность: 05:30:34 (01:43:56; 01:50:11; 01:56:27)

Перевод: не требуется
Субтитры: нет
Оригинальная аудиодорожка: русский

Режиссер: Сергей Герасимов

В ролях:
Даниил Ильченко, Анастасия Филиппова (Горина), Пётр Глебов, Николай Смирнов, Людмила Хитяева, Наталья Архангельская, Алексей Благовестов, Элина Быстрицкая, Зинаида Кириенко, Александр Жуков, Александра Денисова, Борис Новиков, Александр Карпов, Елена Максимова, Геннадий Карякин, Валентина Хмара, Александр Шатов, Игорь Дмитриев, Виллиан Шатуновский, Александр Титов, Вадим Захарченко, Михаил Васильев, Дмитрий Капка, Сергей Юртайкин, Пётр Любешкин, Пётр Чернов, Николай Муравьёв, Борис Муравьев, Михаил Глузский, Виктор Бубнов, Николай Тямин...
Полный список актёров

Описание:
Бессмертный роман Михаила Шолохова, отмеченный Нобелевской премией и вошедший в число наиболее ярких произведений мировой литературы, рассказывает о трагической ситуации, сложившейся в России в начале ХХ века, о сломанных Первой Мировой войной и революцией судьбах людей, о крушении устоев и идеалов донского казачества, о личной трагедии главного героя произведения - Григория Мелехова.

Исходник: 3хDVD9 R5
Качество видео: DVDRip-AVC
Формат видео: MKV

Видео: 696->762х572 (4:3), 25 fps, H264 ~ 1443 kbps avg, 0.145 bit/pixel
Аудио: 48 kHz, Dolby Digital AC3 5.1, 448 kbps Русский
Аудио: 48 kHz, Dolby Digital AC3 5.1, 448 kbps Английский (внешняя ссылка)
Аудио: 48 kHz, Dolby Digital AC3 5.1, 448 kbps Французский (внешняя ссылка)

Раздача от:
Общее
Полное имя : Tihiy.Don.1957-1958.DVDRip-AVC_[New-team]_by_AVP_Studio\03.mkv
Формат : Matroska
Версия формата : Version 2
Размер файла : 1,54 Гбайт
Продолжительность : 1 ч. 56 м.
Общий поток : 1893 Кбит/сек
Дата кодирования : UTC 2017-02-08 03:04:16
Программа кодирования : mkvmerge v6.1.0 ('Old Devil') built on Mar 4 2013 09:10:42
Библиотека кодирования : libebml v1.3.0 + libmatroska v1.4.0

Видео
Идентификатор : 1
Формат : AVC
Формат/Информация : Advanced Video Codec
Профиль формата : High@L4.1
Параметр CABAC формата : Да
Параметр ReFrames формата : 10 кадров
Идентификатор кодека : V_MPEG4/ISO/AVC
Продолжительность : 1 ч. 56 м.
Битрейт : 1443 Кбит/сек
Ширина : 696 пикселей
Высота : 572 пикселя
Соотношение сторон : 4:3
Режим частоты кадров : Постоянный
Частота кадров : 25,000 кадров/сек
Цветовое пространство : YUV
Субдискретизация насыщенности : 4:2:0
Битовая глубина : 8 бит
Тип развёртки : Прогрессивная
Бит/(Пиксели*Кадры) : 0.145
Размер потока : 1,14 Гбайт (74%)
Библиотека кодирования : x264 core 148 r2597 e86f3a1
Настройки программы : cabac=1 / ref=10 / deblock=1:-2:-1 / analyse=0x3:0x113 / me=umh / subme=10 / psy=1 / psy_rd=1.00:0.00 / mixed_ref=1 / me_range=32 / chroma_me=1 / trellis=2 / 8x8dct=1 / cqm=0 / deadzone=21,11 / fast_pskip=1 / chroma_qp_offset=-2 / threads=6 / lookahead_threads=1 / sliced_threads=0 / nr=0 / decimate=0 / interlaced=0 / bluray_compat=0 / constrained_intra=0 / bframes=8 / b_pyramid=2 / b_adapt=2 / b_bias=0 / direct=3 / weightb=1 / open_gop=0 / weightp=2 / keyint=250 / keyint_min=25 / scenecut=40 / intra_refresh=0 / rc=2pass / mbtree=0 / bitrate=1443 / ratetol=1.0 / qcomp=0.60 / qpmin=0 / qpmax=69 / qpstep=4 / cplxblur=20.0 / qblur=0.5 / ip_ratio=1.40 / pb_ratio=1.30 / aq=1:1.00
Default : Да
Forced : Нет

Аудио
Идентификатор : 2
Формат : AC-3
Формат/Информация : Audio Coding 3
Расширение режима : CM (complete main)
Параметр Endianness формата : Big
Идентификатор кодека : A_AC3
Продолжительность : 1 ч. 56 м.
Вид битрейта : Постоянный
Битрейт : 448 Кбит/сек
Каналы : 6 каналов
Расположение каналов : Front: L C R, Side: L R, LFE
Частота : 48,0 КГц
Частота кадров : 31,250 кадров/сек (1536 spf)
Битовая глубина : 16 бит
Метод сжатия : С потерями
Размер потока : 373 Мбайт (24%)
Default : Да
Forced : Нет
pb.wtf



Скачать Тихий Дон через торрент http://s011.radikal.ru/i318/1702/b2/68d485b8513f.png Скачать фильм Тихий Дон через торрент бесплантно в хорошем качестве Описание:Бессмертный роман Михаила Шолохова, отмеченный Нобелевской премией и вошедший в число наиболее ярких произведений мировой ... 10 10 4
Info! Золотая раздача, скачанное не засчитывается.
Торрент: Зарегистрирован [2017-02-08 09:26] · скачан: 124 раз
Статус: √ проверено
Размер: 4.37 GB
Как cкачать? Как скачать Тихий Дон через торрент | qTorrent

% Раздел Тема Автор DL S | L
Кино СССР [ 2.91 GB ] Тихий Дон / Серии: 1-3 из 3 [1957-1958 СССР военный DVDRip от AVP Studio] AVP Studio Скачать
2 | 0
Кино СССР [ 4.37 GB ] Тихий Дон / Серии: 1-3 из 3 [1957-1958 СССР военный DVDRip от AVP Studio] AVP Studio Скачать
1 | 0


>> Регистрируемся здесь <<






Отзывы и комментарии о схеме читаем и пишем здесь: ---> Отзывы и комментарии о схеме

Новые благодарочки в телеграм довольных пользователей:
скриншот   скриншот   скриншот   скриншот   скриншот
    Дорогой пользователь! Огромная просьба, поблагодарите релизера, оцените раздачу и оставьте свои комментарий, если Вы скачали Тихий Дон через торрент бесплатно! Внесите свою лепту в развитие PiratBit!
    Комментировать посты могут только пользователи прошедшие не сложную регистрацию
    Показать сообщения:    

    Тихий Дон через торрент
    Скачать бесплатно Тихий Дон
    Тихий Дон скачать торрент
    Тихий Дон смотреть онлайн
    Cкачать фильм Тихий Дон бесплатно
    Тихий Дон скачать торрент в хорошем качестве
    Тихий Дон смотреть онлайн бесплатно в хорошем качестве


    Вы не можете начинать темы
    Вы не можете отвечать на сообщения
    Вы не можете редактировать свои сообщения
    Вы не можете удалять свои сообщения
    Вы не можете голосовать в опросах
    Вы не можете прикреплять файлы к сообщениям
    Вы можете скачивать файлы