Ссылка на приватное зеркало нашего сайта всего за 1$. Внимание количество ограничено!!!

2 сезон

iTunes

1 сезон

1

2 сезон

2 сезон

iTunes

1 сезон

RePack

30

Ultimate

ВАЖНО

ИГРА 18+

pack

RePack

MK11
pack

Забери бонус

RePack

jed

!!Акция!!

Alien_Rage

RePack

fifa19

RePack

Assassins Creed: Odyssey

RePack

NEED FOR SPEED™ PAYBACK

4 сезон

9 сезон

Бесстыжие 9 сезон

Все сериалы

все сериалы на PB.wtf

RePack

FAR CRY 5
  

Сигнал всем постам / В розыске / A.P.B. / Сезон: 1 / Серии 1-12 из 12 (Дуан Кларк / Duane Clark, Джеффри Дж. Хант / Jeffrey G. Hunt, Эми Канаан Манн / Ami Canaan Mann) [2017, США, драма, криминал, WEB-DLRip-AVC] MVO [BaibaKo] pb.wtf

Сигнал всем постам через торрент pb.wtf

Размер: 10.01 GB | Добавлен: 3 года 7 мес. назад | Торрент скачан:15 раз
Скачать  

08-02-2017 11:50 Сигнал всем постам Скачать торрент  

Сигнал всем постам / В розыске / A.P.B.


  • Год выпуска: 2017
  • Страна: США
  • Жанр: драма, криминал
  • Продолжительность: 00:45:13 (Серия)
  • Перевод: Профессиональный многоголосый [BaibaKo]
  • Режиссер: Дуан Кларк / Duane Clark, Джеффри Дж. Хант / Jeffrey G. Hunt, Эми Канаан Манн / Ami Canaan Mann
  • В ролях:

    Джастин Кирк (Gideon Reed), Натали Мартинес (Amelia Murphy), Кэйтлин Стэйси (Ada Hamilton), Уильям Смайли (Geoff Cobb), Адам Менджеринк (Chicago Police Officer), Алекс Зеленка (Gideon's Techie), Ральф Аббас (Chicago Police Officer (2016)), Дэниэл МакФерсон (Scott Murphy), Роджер Уиггинс (CPD Sgt.), Дэниэл Крэйг Бэйкер (Gideon's Techie), Марлин Форте (Mita), Брайант Ромо (Reyes)


  • Миллиардер покупает проблемный полицейский участок в связи с убийством любимого человека. Может ли современный подход этого загадочного и эксцентричного человека наладить работу ветеранов полиции?
  • Рейтинг:



  • Качество: WEB-DLRip-AVC
  • Формат: :MPEG-4
  • Видео кодек: AVC
  • Аудио кодек: AC3
  • Видео: 1024x576 (16:9), 2000 kbps, 23,976 fps, 0,141 bpp
  • Аудио №1: русский / 5.1 / 48 kHz / 384 kbps / 16 bit |[BaibaKo]|
  • Аудио №2: английский / 5.1 / 48 kHz / 384 kbps / 16 bit
  • Релиз от: GEKADOL

    Внимание! Раздача ведётся путём добавления новых серий; при каждом добавлении создаётся новый торрент. Чтобы начать докачку новой серии, пользователям необходимо сделать следующее:
    (1) остановить скачивание,
    (2) удалить старый торрент у себя из клиента (старые серии удалять не надо),
    (3) скачать новый торрент и запустить его у себя в клиенте вместо старого, при этом указать клиенту путь в старую папку куда и должно происходить скачивание новых серий.
    Ваш клиент при этом должен произвести хеширование (проверку) старой папки (если не производит сам - помогите ему сделать это), и будет докачивать только те серии которых у вас ещё нет. Старые серии при этом не удаляются, а продолжают раздаваться!
    Eсли вы уже удалили старые серии, то предотвратить повторную закачку старых серий можно, отжав галочку в соответствующих местах при запуске нового торрента. По возможности, желательно не удалять старые серии как можно дольше чтобы релизёр не столько продолжал раздавать старые серии, а смог сконцентрироваться на новых.

    General
    Complete name : H:\Сигнал всем постам (APB 1)\APB.s01e01.WEB-DLRip-AVC.Rus.Eng.BaibaKo.tv.mp4
    Format : MPEG-4
    Format profile : Base Media
    Codec ID : isom (isom/iso2/avc1/mp41)
    File size : 896 MiB
    Duration : 45 min
    Overall bit rate : 2 772 kb/s
    Writing application : XviD4PSP 7.0.352 DAILY
    HDVideo : Yes
    encoding_info : MATROSKA / WEBM > MP4 Произвольный / H264 > X264 CBR 2000kbps HQ / AC3 > AC3 CBR 384kbps / AC3 > AC3 CBR 384kbps

    Video
    ID : 1
    Format : AVC
    Format/Info : Advanced Video Codec
    Format profile : High@L4.1
    Format settings, CABAC : Yes
    Format settings, ReFrames : 4 frames
    Codec ID : avc1
    Codec ID/Info : Advanced Video Coding
    Duration : 45 min
    Bit rate : 2 000 kb/s
    Width : 1 024 pixels
    Height : 576 pixels
    Display aspect ratio : 16:9
    Frame rate mode : Constant
    Frame rate : 23.976 (24000/1001) FPS
    Color space : YUV
    Chroma subsampling : 4:2:0
    Bit depth : 8 bits
    Scan type : Progressive
    Bits/(Pixel*Frame) : 0.141
    Stream size : 646 MiB (72%)
    Writing library : x264 core 148 r2762M 90a61ec
    Encoding settings : cabac=1 / ref=3 / deblock=1:-1:-1 / analyse=0x3:0x133 / me=hex / subme=7 / psy=1 / psy_rd=1.00:0.20 / mixed_ref=1 / me_range=16 / chroma_me=1 / trellis=1 / 8x8dct=1 / cqm=0 / deadzone=21,11 / fast_pskip=1 / chroma_qp_offset=-3 / threads=5 / lookahead_threads=1 / sliced_threads=0 / nr=0 / decimate=1 / interlaced=0 / bluray_compat=0 / constrained_intra=0 / bframes=3 / b_pyramid=2 / b_adapt=2 / b_bias=0 / direct=3 / weightb=1 / open_gop=0 / weightp=2 / keyint=230 / keyint_min=23 / scenecut=40 / intra_refresh=0 / rc_lookahead=40 / rc=cbr / mbtree=1 / bitrate=2000 / ratetol=1.0 / qcomp=0.60 / qpmin=0 / qpmax=69 / qpstep=4 / vbv_maxrate=2000 / vbv_bufsize=30000 / nal_hrd=none / filler=0 / ip_ratio=1.40 / aq=1:1.00

    Audio #1
    ID : 2
    Format : AC-3
    Format/Info : Audio Coding 3
    Mode extension : CM (complete main)
    Format settings, Endianness : Big
    Codec ID : ac-3
    Duration : 45 min
    Bit rate mode : Constant
    Bit rate : 384 kb/s
    Channel(s) : 6 channels
    Channel positions : Front: L C R, Side: L R, LFE
    Sampling rate : 48.0 kHz
    Frame rate : 31.250 FPS (1536 spf)
    Bit depth : 16 bits
    Compression mode : Lossy
    Stream size : 124 MiB (14%)
    Language : Russian
    Default : Yes
    Alternate group : 1

    Audio #2
    ID : 3
    Format : AC-3
    Format/Info : Audio Coding 3
    Mode extension : CM (complete main)
    Format settings, Endianness : Big
    Codec ID : ac-3
    Duration : 45 min
    Bit rate mode : Constant
    Bit rate : 384 kb/s
    Channel(s) : 6 channels
    Channel positions : Front: L C R, Side: L R, LFE
    Sampling rate : 48.0 kHz
    Frame rate : 31.250 FPS (1536 spf)
    Bit depth : 16 bits
    Compression mode : Lossy
    Stream size : 124 MiB (14%)
    Language : English
    Default : No
    Alternate group : 1





    Скриншоты:
    скриншот   скриншот   скриншот   скриншот   скриншот   скриншот   скриншот  
    скриншот  

    Раздача ведётся путём добавления новых серий. Добавлена 12 серия (26.04.2017).Просьба перекачать торрент файл.

    pb.wtf



  • Скачать Сигнал всем постам через торрент http://i91.fastpic.ru/big/2017/0208/a2/0539cb5c802febd06cde67aebb6084a2.jpg Скачать фильм Сигнал всем постам через торрент бесплантно в хорошем качестве qw.png Миллиардер покупает проблемный полицейский участок в связи с убийством любимого человека. Может ли современный подход этого ... 9.8 10 8
    Info! Золотая раздача, скачанное не засчитывается.
    Торрент: Зарегистрирован [2017-04-26 02:04] · скачан: 15 раз
    Статус: √ проверено
    Размер: 10.01 GB
    Как cкачать? Как скачать Сигнал всем постам через торрент | qTorrent

    % Раздел Тема Автор DL S | L
    Зарубежные сериалы [ 6.47 GB ] В розыске / Сигнал всем постам / A.P.B. / Сезон 1 / Серии 1-12 из 12 [2017 WEBRip] MVO [FOX] bober100 Скачать
    1 | 0
    Зарубежные сериалы [ 39.73 GB ] В розыске / Сигнал всем постам / A.P.B. / Сезон 1 / Серии 1-12 из 12 [2017 WEBRip 1080p] [MVO] killermax2013 Скачать
    1 | 0
    Зарубежные сериалы [ 6.45 GB ] В розыске / Сигнал всем постам / A.P.B. / Сезон 1 / Серии 1-12 из 12 [2017 WEBRip] [MVO] killermax2013 Скачать
    1 | 0
    Зарубежные сериалы [ 5.89 GB ] В розыске / Сигнал всем постам / A.P.B. / Сезон 1 / Серии 1-11 из 12 [2017 WEB-DLRip] [MVO] killermax2013 Скачать
    1 | 0
    Зарубежные сериалы [ 16.98 GB ] Сигнал всем постам / В розыске / A.P.B. / Сезон 1 / Серии 1-12 из 12 [2017 WEB-DL 720p] MVO [BaibaKo] Dusster Скачать
    1 | 0
    Зарубежные сериалы [ 4.52 GB ] В розыске / Сигнал всем постам / A.P.B. / Сезон 1 / Серии 1-9 из 12 [2017 HDTVRip] [MVO] killermax2013 Скачать
    1 | 0


    Последний раз редактировалось: GEKADOL (2017-04-26 13:12), всего редактировалось 16 раз(а)

    28-11-2019 20:33  

    Отключить всю рекламу на сайте

    12-02-2017 19:55 Сигнал всем постам Скачать торрент  

    эх...продолжение быpb.wtf



    15-02-2017 04:02 Сигнал всем постам Скачать торрент  

    burjui писал(а):

    эх...продолжение бы

    Вот продолжение) pb.wtf



    27-03-2017 21:49 Сигнал всем постам Скачать торрент  

    Вот интересно, связан ли как то данный сериал с одноименной игрой APB (All Point Bulletin), ну или может вдохновлен по мотивам...pb.wtf



      Дорогой пользователь! Огромная просьба, поблагодарите релизера, оцените раздачу и оставьте свои комментарий, если Вы скачали Сигнал всем постам через торрент бесплатно! Внесите свою лепту в развитие PiratBit!
      Комментировать посты могут только пользователи прошедшие не сложную регистрацию
      Показать сообщения:    

      Сигнал всем постам через торрент
      Скачать бесплатно Сигнал всем постам
      Сигнал всем постам скачать торрент
      Сигнал всем постам смотреть онлайн
      Cкачать фильм Сигнал всем постам бесплатно
      Сигнал всем постам скачать торрент в хорошем качестве
      Сигнал всем постам смотреть онлайн бесплатно в хорошем качестве


      Вы не можете начинать темы
      Вы не можете отвечать на сообщения
      Вы не можете редактировать свои сообщения
      Вы не можете удалять свои сообщения
      Вы не можете голосовать в опросах
      Вы не можете прикреплять файлы к сообщениям
      Вы можете скачивать файлы