Всегда рабочее зеркало просто перед .vidak.icu напиши любое слово или цифру, Пример http://068.vidak.icu

>

7.4

iTunes

7.4

2 сезон

9.4

1 сезон

1

7.4

2 сезон

7.2

iTunes

6.0

MVO

13

6.1

iTunes

8.3

Пиратка

30

ULTIMATE

pack

9.9

Лицензия

ВАЖНО

ИГРА 18+

pack

7.3

RePack

MK11

7.7

RePack

jed

7.8

RePack

fifa19

8.5

RePack

RDR2

RePack

NEED FOR SPEED™ PAYBACK

1 сезон

9 сезон

Бесстыжие 9 сезон

Все сериалы

все сериалы на PB.wtf

RePack

FAR CRY 5

Anonymous, доброй ночи, мы катастрофически не успеваем собрать деньги на оплату серверов, помогите нам пожалуйста 5,10,15р., для нас важна любая помощь . В качестве благодарности мы отключим Вам всю рекламу на сайте (укажите свой ник в строку Ваше имя)!

×
  
Magnet ссылка

Гиена / Hyena (Герард Джонсон) [2014 г., драма, криминал, HDRip, Авторский одноголосый "М.Чадов"] pb.wtf

Гиена через торрент pb.wtf

Размер: 2.06 GB | Добавлен: 4 года 11 мес. назад | Торрент скачан:21 раз
Смотреть онлайн Гиена | Скачать    Ребята, помогите собрать деньги на оплату серверов!!!

08-02-2017 18:34 Гиена Скачать торрент  

Гиена / Hyena
Год выпуска: 2014
Страна: Великобритания / Film4, Number 9 Films
Жанр: драма, криминал
Продолжительность: 01:52:32
Перевод: Авторский одноголосый (М.Чадов)

Режиссер: Герард Джонсон

rating

В ролях: Питер Фердинандо, Стивен Грэм, Нил Мэскелл, Элиза Ласовски, МайАнна Бёринг, Ричард Дормер, Гордон Браун, Тони Питтс, Орли Шука, Джеват Келменди

Описание: Быть хорошим полицейским не означает делать все по учебнику. Но, когда преступная деятельность в Лондоне идет на пользу албанцам и туркам, как выжить «хорошему» полицейскому?

Доп. информация: В авторском переводе присутствует нецензурная лексика

Качество: HDRip
Формат: AVI
Видео кодек: XviD
Аудио кодек: AC3
Видео: 720x304 (2.37:1), 24 fps, XviD MPEG-4 ~1716 kbps avg, 0.33 bit/pixel
Аудио#1: 48 kHz, AC3 Dolby Digital, 3/2 (L,C,R,l,r) + LFE ch, ~448 kbps (М. Чадов)
Аудио#2: 48 kHz, AC3 Dolby Digital, 3/2 (L,C,R,l,r) + LFE ch, ~448 kbps (eng)

Общее
Полное имя : F:\ФИЛЬМЫ\Гиена.2014.A.HDRip.avi
Формат : AVI
Формат/Информация : Audio Video Interleave
Профиль формата : OpenDML
Размер файла : 2,06 Гбайт
Продолжительность : 1 ч. 52 м.
Общий поток : 2619 Кбит/сек
Программа кодирования : Lavf57.41.100

Видео
Идентификатор : 0
Формат : MPEG-4 Visual
Профиль формата : Simple@L5
Параметр BVOP формата : 2
Параметр QPel формата : Нет
Параметр GMC формата : Без точки перехода
Параметр матрицы формата : Default (H.263)
Режим смешивания : Сжатый битовый поток
Идентификатор кодека : XVID
Идентификатор кодека/Подсказка : XviD
Продолжительность : 1 ч. 52 м.
Битрейт : 1707 Кбит/сек
Ширина : 720 пикселей
Высота : 304 пикселя
Соотношение сторон : 2,40:1
Частота кадров : 24,000 кадра/сек
Цветовое пространство : YUV
Субдискретизация насыщенности : 4:2:0
Битовая глубина : 8 бит
Тип развёртки : Прогрессивная
Метод сжатия : С потерями
Бит/(Пиксели*Кадры) : 0.325
Размер потока : 1,34 Гбайт (65%)
Библиотека кодирования : XviD 67

Аудио #1
Идентификатор : 1
Формат : AC-3
Формат/Информация : Audio Coding 3
Расширение режима : CM (complete main)
Параметр Endianness формата : Big
Идентификатор кодека : 2000
Продолжительность : 1 ч. 52 м.
Вид битрейта : Постоянный
Битрейт : 448 Кбит/сек
Каналы : 6 каналов
Расположение каналов : Front: L C R, Side: L R, LFE
Частота : 48,0 КГц
Частота кадров : 31,250 кадров/сек (1536 spf)
Битовая глубина : 16 бит
Метод сжатия : С потерями
Размер потока : 361 Мбайт (17%)
Выравнивание : Соединение по промежуткам
Продолжительность промежутка : 32 мс. (0,77 видеокадр)
Заголовок : AVO Чадов Михаил

Аудио #2
Идентификатор : 2
Формат : AC-3
Формат/Информация : Audio Coding 3
Расширение режима : CM (complete main)
Параметр Endianness формата : Big
Идентификатор кодека : 2000
Продолжительность : 1 ч. 52 м.
Вид битрейта : Постоянный
Битрейт : 448 Кбит/сек
Каналы : 6 каналов
Расположение каналов : Front: L C R, Side: L R, LFE
Частота : 48,0 КГц
Частота кадров : 31,250 кадров/сек (1536 spf)
Битовая глубина : 16 бит
Метод сжатия : С потерями
Размер потока : 361 Мбайт (17%)
Выравнивание : Соединение по промежуткам
Продолжительность промежутка : 32 мс. (0,77 видеокадр)

pb.wtf



Скачать Гиена через торрент https://pic1.kartinco.top/images/11/blzrk.jpg Скачать, смотреть онлайн Гиена бесплантно в хорошем качестве Описание: Быть хорошим полицейским не означает делать все по учебнику. Но, когда преступная деятельность в Лондоне идет на пользу албанцам ... 10 10 1
Торрент: Зарегистрирован [2017-02-08 18:39] · скачан: 21 раз
Статус: √ проверено
Размер: 2.06 GB
Как cкачать? Как скачать Гиена через торрент | UTorrent

% Раздел Тема Автор DL S | L
Азиатские фильмы [ 23.95 GB ] Бесстрашная гиена / Xiao quan guai zhao / The Fearless Hyena [1979 BDRemux 1080р] [DVO+VO+AVO] Russian Mafia Скачать
1 | 0
T Релизы по Парсеру [Игры, Сериалы и Фильмы и другое...] [ 2.05 GB ] Тропа гиены / Hyena Road [2015 военный HDRip] MVO [Синема УС] bober100 Скачать
1 | 0
T Фильмы (Blu-ray, BD-Remux, HDDVD) [ 33.81 GB ] Тропа гиены / Hyena Road [2015 военный BDRemux 1080p] Любительский / Xixidok Russian Mafia Скачать
1 | 0
T Фильмы 2015 (Звук TS, Cam, VO, DVO) [ 1.45 GB ] Тропа гиены / Hyena Road [2015 военный HDRip ] VO [Хихикающий доктор] -Lexx- Скачать
1 | 0
Фильмы без перевода [ 1.39 GB ] Гиена / Hyena [2014 WEB-DLRip Оригинал] makarevich Скачать
1 | 0
Азиатские фильмы [ 1.37 GB ] Бесстрашная гиена / Fearless hyena [1979 Боевые исскуства DVDRip] nobana Скачать
1 | 0
Discovery [ 315 MB ] Animal Planet: Ночь . Гиена / Night. Hyena [2009 Документальный HDTVRip VO] sergey82 Скачать
1 | 0


Последний раз редактировалось: coc900 (2017-02-08 19:13), всего редактировалось 1 раз

28-11-2019 20:33  

Отключить всю рекламу на сайте

08-02-2017 18:48 Гиена Скачать торрент  

coc900, перезалейте скриншоты.pb.wtf



08-02-2017 19:13 Гиена Скачать торрент  

-Lexx-, готовоpb.wtf



08-02-2017 19:34 Гиена Скачать торрент  

coc900, кстати, не хотите попробовать заливать скриншоты через Image Uploader- программа для быстрой загрузки изображений, фотографий, кадров из видео в интернет+файлы ?
Прога очень простая, умеет сама снимать скриншоты с видеофайлов, заливает на множество хостингов по выбору пользователя.. и скрины довольно симпатичные получаются)Попробуйте, вам понравится. Только после скачивания обязательно обновите её до последней версии.pb.wtf



    Дорогой пользователь! Огромная просьба, поблагодарите релизера, оцените раздачу и оставьте свои комментарий, если Вы скачали Гиена через торрент бесплатно!
    Комментировать посты могут только пользователи прошедшие не сложную регистрацию
    Показать сообщения:    

    Гиена через торрент
    Скачать бесплатно Гиена
    Гиена скачать торрент
    Гиена смотреть онлайн
    Cкачать фильм Гиена бесплатно
    Гиена скачать торрент в хорошем качестве
    Гиена смотреть онлайн бесплатно в хорошем качестве


    Вы не можете начинать темы
    Вы не можете отвечать на сообщения
    Вы не можете редактировать свои сообщения
    Вы не можете удалять свои сообщения
    Вы не можете голосовать в опросах
    Вы не можете прикреплять файлы к сообщениям
    Вы можете скачивать файлы