Ссылка на приватное зеркало всего за 1$. Внимание количество ограничено!!!

iTunes

iTunes

iTunes

1

iTunes

iTunes

iTunes

iTunes

iTunes

30
pack

$ от Little Big

ВАЖНО

!!Акция!!

Alien_RageХит недели

RePack

Resident Evil 21

ИГРА 18+

pack

RePack

jed

!!Акция!!

Alien_Rage

RePack

fifa19

RePack

Assassins Creed: Odyssey

RePack

NEED FOR SPEED™ PAYBACK

4 сезон

9 сезон

Бесстыжие 9 сезон

Все сериалы

все сериалы на PB.wtf

RePack

FAR CRY 5
  

Преисподняя / Brimstone (Мартин Кулховен / Martin Koolhoven) [2016, Нидерланды, Франция, Германия, Бельгия, Швеция, Великобритания, триллер, детектив, вестерн, WEB-DL 720p, Профессиональный многоголосый [Лицензия / iTunes] pb.wtf

Преисподняя через торрент pb.wtf

Размер: 4.81 GB | Добавлен: 3 года 5 мес. назад | Торрент скачан:422 раза
Скачать  

09-02-2017 02:35 Преисподняя Скачать торрент  

Преисподняя / Brimstone


  • Год выпуска: 2016
  • Страна: Нидерланды, Франция, Германия, Бельгия, Швеция, Великобритания
  • Жанр: триллер, детектив, вестерн
  • Продолжительность: 02:22:28
  • Перевод: Профессиональный многоголосый [Лицензия / iTunes]

  • Режиссер: Мартин Кулховен / Martin Koolhoven
  • В ролях:

    Дакота Фаннинг (Liz), Кит Харингтон (Samuel), Кэрис ван Хаутен (Anna), Гай Пирс (The Reverend), Пол Андерсон (Frank), Эмилия Джонс (Joanna), Карла Юри (Elizabeth Brundy), Тиго Гернандт (Crawling outlaw), Джек Рот (Wolf), Уильям Хьюстон (Eli), Айви Джордж (Sam), Наоми Баттрик (рассказчик)


  • История о девушке по имени Лиз, которая пытается сбежать от своего темного прошлого и скрывается от преследования «дьявольского» проповедника.
  • Рейтинг:



  • Качество: WEB-DL 720p
  • Формат: :MKV
  • Видео кодек: AVC
  • Аудио кодек: AC3
  • Видео: 960x720 (16:9), 3966 kbps, 25 fps, 0,230 bpp
  • Аудио №1: русский / 5.1 / 48 kHz / 384 kbps |[Лицензия / iTunes]|
  • Аудио №2: украинский / 5.1 / 48 kHz / 384 kbps

    General
    Unique ID : 214803285334934496332158198756271202614 (0xA1999BA1D1F9E73186CB094201242136)
    Complete name : H:\Brimstone.2016.P.WEB-DL.720p.mkv
    Format : Matroska
    Format version : Version 4 / Version 2
    File size : 4.81 GiB
    Duration : 2 h 22 min
    Overall bit rate : 4 830 kb/s
    Encoded date : UTC 2017-02-08 23:08:41
    Writing application : mkvmerge v6.5.0 ('Isn't she lovely') built on Oct 20 2013 12:50:05
    Writing library : libebml v1.3.0 + libmatroska v1.4.1

    Video
    ID : 1
    Format : AVC
    Format/Info : Advanced Video Codec
    Format profile : Main@L3.1
    Format settings, CABAC : No
    Format settings, ReFrames : 2 frames
    Codec ID : V_MPEG4/ISO/AVC
    Duration : 2 h 22 min
    Bit rate : 3 966 kb/s
    Width : 960 pixels
    Height : 720 pixels
    Display aspect ratio : 16:9
    Frame rate mode : Constant
    Frame rate : 25.000 FPS
    Color space : YUV
    Chroma subsampling : 4:2:0
    Bit depth : 8 bits
    Scan type : Progressive
    Bits/(Pixel*Frame) : 0.230
    Stream size : 3.95 GiB (82%)
    Language : English
    Default : Yes
    Forced : No
    Color range : Limited
    Color primaries : BT.709
    Transfer characteristics : BT.709
    Matrix coefficients : BT.709

    Audio #1
    ID : 2
    Format : AC-3
    Format/Info : Audio Coding 3
    Mode extension : CM (complete main)
    Format settings, Endianness : Big
    Codec ID : A_AC3
    Duration : 2 h 22 min
    Bit rate mode : Constant
    Bit rate : 384 kb/s
    Channel(s) : 6 channels
    Channel positions : Front: L C R, Side: L R, LFE
    Sampling rate : 48.0 kHz
    Frame rate : 31.250 FPS (1536 spf)
    Compression mode : Lossy
    Stream size : 391 MiB (8%)
    Language : Russian
    Default : Yes
    Forced : No

    Audio #2
    ID : 3
    Format : AC-3
    Format/Info : Audio Coding 3
    Mode extension : CM (complete main)
    Format settings, Endianness : Big
    Codec ID : A_AC3
    Duration : 2 h 22 min
    Bit rate mode : Constant
    Bit rate : 384 kb/s
    Channel(s) : 6 channels
    Channel positions : Front: L C R, Side: L R, LFE
    Sampling rate : 48.0 kHz
    Frame rate : 31.250 FPS (1536 spf)
    Compression mode : Lossy
    Stream size : 391 MiB (8%)
    Language : Ukrainian
    Default : No
    Forced : No

    Menu
    00:00:00.000 : en:Глава 1
    00:04:17.800 : en:Глава 2
    00:13:57.760 : en:Глава 3
    00:24:03.480 : en:Глава 4
    00:31:01.600 : en:Глава 5
    00:40:39.760 : en:Глава 6
    00:47:40.320 : en:Глава 7
    00:55:38.320 : en:Глава 8
    01:03:57.080 : en:Глава 9
    01:14:03.080 : en:Глава 10
    01:24:15.160 : en:Глава 11
    01:32:54.839 : en:Глава 12
    01:40:59.119 : en:Глава 13
    01:51:23.359 : en:Глава 14
    01:59:32.559 : en:Глава 15
    02:08:09.118 : en:Глава 16



    Скриншоты:



    pb.wtf



  • Скачать Преисподняя через торрент http://i91.fastpic.ru/big/2017/0209/05/9e1e2397a93acc41247283343fde1905.jpg Скачать фильм Преисподняя через торрент бесплантно в хорошем качестве qw.png История о девушке по имени Лиз, которая пытается сбежать от своего темного прошлого и скрывается от преследования «дьявольского» ... 9.6 10 9
    Торрент: Зарегистрирован [2017-02-09 02:35] · скачан: 422 раз
    Статус: √ проверено
    Размер: 4.81 GB
    Как cкачать? Как скачать Преисподняя через торрент | qTorrent

    % Раздел Тема Автор DL S | L
    Фильмы (Blu-ray, BD-Remux, HDDVD) [ 31.09 GB ] Преисподняя / Brimstone [2016 BD Remux 1080p] MVO [US Transfer] [] bober100 Скачать
    1 | 0
    Фильмы 2016 [DVDrip, WEB-DLRip, HDrip] (DUB, MVO) [ 2.91 GB ] Преисподняя / Brimstone [2016 BDRip-AVC] многоголосый [] от ExKinoRay Enigma2010 Скачать
    2 | 0
    Фильмы 2016 [DVDrip, WEB-DLRip, HDrip] (DUB, MVO) [ 1.46 GB ] Преисподняя / Brimstone [2016 BDRip] MVO [] bober100 Скачать
    1 | 0
    Фильмы 2016 [DVDrip, WEB-DLRip, HDrip] (DUB, MVO) [ 2.18 GB ] Преисподняя / Brimstone [2016 BDRip] многоголосый [] Twi7ter Скачать
    2 | 0
    Фильмы 2016 [DVDrip, WEB-DLRip, HDrip] (DUB, MVO) [ 1.46 GB ] Преисподняя / Brimstone [2016 BDRip] многоголосый [] Twi7ter Скачать
    1 | 0
    Фильмы 2016 [DVDrip, WEB-DLRip, HDrip] (DUB, MVO) [ 2.18 GB ] Преисподняя / Brimstone [2016 BDRip] MVO [] bober100 Скачать
    1 | 0
    Фильмы 2016 [DVDrip, WEB-DLRip, HDrip] (DUB, MVO) [ 2.75 GB ] Преисподняя / Brimstone [2016 BDRip-AVC] MVO [] bober100 Скачать
    1 | 0

    28-11-2019 20:33  

    Отключить всю рекламу на сайте

    09-02-2017 07:21 Преисподняя Скачать торрент  

    Беда какая-то со скриншотами. Кто проверял раздачу, как не заметили проблему?pb.wtf



    09-02-2017 16:35 Преисподняя Скачать торрент  

    Фильм понравился, но тяжелый.pb.wtf



      Дорогой пользователь! Огромная просьба, поблагодарите релизера, оцените раздачу и оставьте свои комментарий, если Вы скачали Преисподняя через торрент бесплатно! Внесите свою лепту в развитие PiratBit!
      Комментировать посты могут только пользователи прошедшие не сложную регистрацию
      Показать сообщения:    

      Преисподняя через торрент
      Скачать бесплатно Преисподняя
      Преисподняя скачать торрент
      Преисподняя смотреть онлайн
      Cкачать фильм Преисподняя бесплатно
      Преисподняя скачать торрент в хорошем качестве
      Преисподняя смотреть онлайн бесплатно в хорошем качестве


      Вы не можете начинать темы
      Вы не можете отвечать на сообщения
      Вы не можете редактировать свои сообщения
      Вы не можете удалять свои сообщения
      Вы не можете голосовать в опросах
      Вы не можете прикреплять файлы к сообщениям
      Вы можете скачивать файлы