Ссылка на приватное зеркало нашего сайта всего за 1$. Внимание количество ограничено!!!

2 сезон

iTunes

1 сезон

1

iTunes

iTunes

iTunes

1 сезон

RePack

30

ИГРА 18+

pack

ВАЖНО

!!Акция!!

Alien_RageХит недели

RePack

MK11
pack

Забери бонус

RePack

jed

!!Акция!!

Alien_Rage

RePack

fifa19

RePack

Assassins Creed: Odyssey

RePack

NEED FOR SPEED™ PAYBACK

4 сезон

9 сезон

Бесстыжие 9 сезон

Все сериалы

все сериалы на PB.wtf

RePack

FAR CRY 5
  

Осиное гнездо / Сезон: 1 / Серии: 1-16 из 16 (Сергей Лялин) [2016 г., Мелодрама, HDTVRip, Русский] от R.G.Resident pb.wtf

Осиное гнездо через торрент pb.wtf

Размер: 8.76 GB | Добавлен: 3 года 8 мес. назад | Торрент скачан:65 раз
Скачать  

09-02-2017 09:50 Осиное гнездо Скачать торрент  

Осиное гнездо
Год выпуска: 2016
Страна: Россия, Кинокомпания Русское
Жанр: Мелодрама
Продолжительность: 16 х ~ 00:52:00
Язык: Русский

Режиссер: Сергей Лялин



В ролях: Мария Куликова, Евгения Симонова, Ирина Антоненко, Ксения Лукьянчикова, Елизавета Арзамасова, Андрей Чернышов, Юрий Батурин, Игорь Несветаев, Илья Алексеев, Евгений Сидихин

Описание: В семье Мальцевых одни женщины: бабушка Елизавета Андреевна, ее дочь Кира и три ее дочки: двойняшки Ксения и Вероника, и младшая - Лера. Они живут в большом доме, который им оставил в наследство отец Елизаветы Андреевны. Кира родила девочек вне брака и с тех пор, как окончила медицинский институт, работала днями и ночами, чтобы всех прокормить. Кира все контролировала в доме, но однажды все взбунтовались. Студентка юридического института Лера завела роман с бывшим любовником Киры. Актриса Вероника вскрыла вены от того, что ее соблазнил, да еще и посмеялся над ней кинорежиссер. Художник Ксения сорвала выгодный заказ – нарисовала жену важного чиновника так, как она выглядела на самом деле, вместо того, чтобы изобразить ее красавицей. Елизавета Андреевна ушла из дома, оставив завещание, по которому все ее имущество переходит к неизвестной Лие Аркадьевне Гуревич. Еще в завещании упомянута картина Ван Гога, бабушка ее отписала музею. Про картину в доме никто не знал. Все поражены. Бабушка вернулась, но тайн своих не раскрыла. А за картиной начал охоту жених Леры Максим. Он ведет двойную жизнь. Представляется директором арт-центра, но главный источник его доходов - «модельное агентство», поставляющее девушек в зарубежные бордели. Максим привык жить на широкую ногу, он делает долги, ему угрожают, и он хочет выкрасть и продать Ван Гога. Ради своей цели Беляев готов на все…

Качество: HDTVRip
Формат: AVI
Видео кодек: XviD
Аудио кодек: AC3
Видео: 720x400 (1.80:1), 25 fps, XviD build 65 ~1290 kbps avg, 0.18 bit/pixel
Аудио#1: 48 kHz, AC3 Dolby Digital, 2/0 (L,R) ch, ~192.00 kbps avg
Релиз от: ruslanishe
General
Osinoe.gnezdo.XviD.2016.HDTVRip.R.G.Resident\001.avi
Format : AVI
Format/Info : Audio Video Interleave
File size : 560 MiB
Duration : 52mn 30s
Overall bit rate : 1 492 Kbps
Director : ruslanishe
Writing application : VirtualDubMod 1.5.10.3 | www.virtualdub-fr.org || (build 2550/release)
Copyright : R.G.Resident

Video
ID : 0
Format : MPEG-4 Visual
Format profile : Advanced Simple@L5
Format settings, BVOP : 2
Format settings, QPel : No
Format settings, GMC : No warppoints
Format settings, Matrix : Custom
Codec ID : XVID
Codec ID/Hint : XviD
Duration : 52mn 30s
Bit rate : 1 290 Kbps
Width : 720 pixels
Height : 400 pixels
Display aspect ratio : 16:9
Frame rate : 25.000 fps
Color space : YUV
Chroma subsampling : 4:2:0
Bit depth : 8 bits
Scan type : Progressive
Compression mode : Lossy
Bits/(Pixel*Frame) : 0.179
Stream size : 484 MiB (86%)
Writing library : XviD 65

Audio
ID : 1
Format : AC-3
Format/Info : Audio Coding 3
Mode extension : CM (complete main)
Format settings, Endianness : Big
Codec ID : 2000
Duration : 52mn 30s
Bit rate mode : Constant
Bit rate : 192 Kbps
Channel(s) : 2 channels
Channel positions : Front: L R
Sampling rate : 48.0 KHz
Bit depth : 16 bits
Compression mode : Lossy
Stream size : 72.1 MiB (13%)
Alignment : Split accross interleaves
Interleave, duration : 40 ms (1.00 video frame)
Interleave, preload duration : 500 ms
pb.wtf



Скачать Осиное гнездо через торрент http://i12.pixs.ru/storage/8/2/7/39ae1828eb_6169313_25062827.jpg Скачать фильм Осиное гнездо через торрент бесплантно в хорошем качестве Описание: В семье Мальцевых одни женщины: бабушка Елизавета Андреевна, ее дочь Кира и три ее дочки: двойняшки Ксения и Вероника, и младшая ... 8.9 10 8
Info! Золотая раздача, скачанное не засчитывается.
Торрент: Зарегистрирован [2017-02-17 10:11] · скачан: 65 раз
Статус: √ проверено
Размер: 8.76 GB
Как cкачать? Как скачать Осиное гнездо через торрент | qTorrent

28-11-2019 20:33  

Отключить всю рекламу на сайте

    Дорогой пользователь! Огромная просьба, поблагодарите релизера, оцените раздачу и оставьте свои комментарий, если Вы скачали Осиное гнездо через торрент бесплатно! Внесите свою лепту в развитие PiratBit!
    Комментировать посты могут только пользователи прошедшие не сложную регистрацию
    Показать сообщения:    

    Осиное гнездо через торрент
    Скачать бесплатно Осиное гнездо
    Осиное гнездо скачать торрент
    Осиное гнездо смотреть онлайн
    Cкачать фильм Осиное гнездо бесплатно
    Осиное гнездо скачать торрент в хорошем качестве
    Осиное гнездо смотреть онлайн бесплатно в хорошем качестве


    Вы не можете начинать темы
    Вы не можете отвечать на сообщения
    Вы не можете редактировать свои сообщения
    Вы не можете удалять свои сообщения
    Вы не можете голосовать в опросах
    Вы не можете прикреплять файлы к сообщениям
    Вы можете скачивать файлы