Ссылка на приватное зеркало нашего сайта всего за 1$. Внимание количество ограничено!!!

2 сезон

iTunes

1 сезон

1

2 сезон

2 сезон

iTunes

1 сезон

RePack

30

Новинка

ВАЖНО

ИГРА 18+

pack

RePack

MK11
pack

Забери бонус

RePack

jed

!!Акция!!

Alien_Rage

RePack

fifa19

RePack

Assassins Creed: Odyssey

RePack

NEED FOR SPEED™ PAYBACK

4 сезон

9 сезон

Бесстыжие 9 сезон

Все сериалы

все сериалы на PB.wtf

RePack

FAR CRY 5
  

Шесть / Шестой отряд / Six / Сезон 1 / Серии 1-8 из 8 (Лесли Линка Глаттер / Lesli Linka Glatter, Микаэл Саломон / Mikael Salomon) [2017, США, боевик, драма, военный, WEB-DLRip-AVC] MVO [BaibaKo] pb.wtf

Шесть через торрент pb.wtf

Размер: 5.99 GB | Добавлен: 3 года 8 мес. назад | Торрент скачан:30 раз
Скачать  

11-02-2017 03:28 Шесть Скачать торрент  

Шесть / Шестой отряд / Six


  • Год выпуска: 2017
  • Страна: США
  • Жанр: боевик, драма, военный, история
  • Продолжительность: 00:42:08 (Серия)
  • Перевод: Профессиональный многоголосый [BaibaKo]
  • Режиссер: Лесли Линка Глаттер / Lesli Linka Glatter, Микаэл Саломон / Mikael Salomon
  • В ролях:

    Бэрри Слоун (Joe «Bear» Graves), Кайл Шмид (Alex Caulder), Хуан Пабло Раба (Ricky «Buddha» Ortiz), Эдвин Ходж (Robert Chase), Брианна Дэвис (Lena Graves), Надин Веласкес (Jackie Ortiz), Доминик Адамс (Michael Nasry), Уолтон Гоггинс (Richard «RIP» Taggart), Tyla Harris (Esther), Джейлен Мур (Armin «Fishbait» Khan), Нондумисо Тембе (Na'omi), Зико Заки (Akmal Barayev)


  • Сериал "Шесть" расскажет о буднях элитного подразделения «морских котиков» под названием «Команда 6». Лучшие из лучших, эти члены воинского братства принимали участие в самых сложных миссиях, включая физическое устранение лидера «Аль-Каиды» Усамы бен Ладена. Вдохновленный реальными операциями «Команды 6» сериал исследует характер и судьбу своих героев, которым по несколько раз на дню приходится решать вопросы жизни и смерти.
  • Рейтинг:



  • Качество: WEB-DLRip-AVC
  • Формат: :MPEG-4
  • Видео кодек: AVC
  • Аудио кодек: AC3
  • Видео: 1024x574 (16:9), 2000 kbps, 23,976 fps, 0,142 bpp
  • Аудио №1: русский / 2.0 / 48 kHz / 192 kbps / 16 bit |[BaibaKo]|
  • Аудио №2: английский / 2.0 / 48 kHz / 192 kbps / 16 bit
  • Релиз от: GEKADOL

    Внимание! Раздача ведётся путём добавления новых серий; при каждом добавлении создаётся новый торрент. Чтобы начать докачку новой серии, пользователям необходимо сделать следующее:
    (1) остановить скачивание,
    (2) удалить старый торрент у себя из клиента (старые серии удалять не надо),
    (3) скачать новый торрент и запустить его у себя в клиенте вместо старого, при этом указать клиенту путь в старую папку куда и должно происходить скачивание новых серий.
    Ваш клиент при этом должен произвести хеширование (проверку) старой папки (если не производит сам - помогите ему сделать это), и будет докачивать только те серии которых у вас ещё нет. Старые серии при этом не удаляются, а продолжают раздаваться!
    Eсли вы уже удалили старые серии, то предотвратить повторную закачку старых серий можно, отжав галочку в соответствующих местах при запуске нового торрента. По возможности, желательно не удалять старые серии как можно дольше чтобы релизёр не столько продолжал раздавать старые серии, а смог сконцентрироваться на новых.

    General
    Complete name : H:\Шесть (Six)\Six.s01e04.WEB-DLRip-AVC.Rus.Eng.BaibaKo.tv.mp4
    Format : MPEG-4
    Format profile : Base Media
    Codec ID : isom (isom/iso2/avc1/mp41)
    File size : 720 MiB
    Duration : 42 min
    Overall bit rate : 2 389 kb/s
    Writing application : XviD4PSP 7.0.352 DAILY
    HDVideo : Yes
    encoding_info : MATROSKA / WEBM > MP4 Произвольный / H264 > X264 CBR 2000kbps HQ / AC3 > AC3 CBR 192kbps / AC3 > AC3 CBR 192kbps

    Video
    ID : 1
    Format : AVC
    Format/Info : Advanced Video Codec
    Format profile : High@L4.1
    Format settings, CABAC : Yes
    Format settings, ReFrames : 4 frames
    Codec ID : avc1
    Codec ID/Info : Advanced Video Coding
    Duration : 42 min
    Bit rate : 2 000 kb/s
    Width : 1 024 pixels
    Height : 574 pixels
    Display aspect ratio : 16:9
    Frame rate mode : Constant
    Frame rate : 23.976 (24000/1001) FPS
    Color space : YUV
    Chroma subsampling : 4:2:0
    Bit depth : 8 bits
    Scan type : Progressive
    Bits/(Pixel*Frame) : 0.142
    Stream size : 603 MiB (84%)
    Writing library : x264 core 148 r2762M 90a61ec
    Encoding settings : cabac=1 / ref=3 / deblock=1:-1:-1 / analyse=0x3:0x133 / me=hex / subme=7 / psy=1 / psy_rd=1.00:0.20 / mixed_ref=1 / me_range=16 / chroma_me=1 / trellis=1 / 8x8dct=1 / cqm=0 / deadzone=21,11 / fast_pskip=1 / chroma_qp_offset=-3 / threads=5 / lookahead_threads=1 / sliced_threads=0 / nr=0 / decimate=1 / interlaced=0 / bluray_compat=0 / constrained_intra=0 / bframes=3 / b_pyramid=2 / b_adapt=2 / b_bias=0 / direct=3 / weightb=1 / open_gop=0 / weightp=2 / keyint=230 / keyint_min=23 / scenecut=40 / intra_refresh=0 / rc_lookahead=40 / rc=cbr / mbtree=1 / bitrate=2000 / ratetol=1.0 / qcomp=0.60 / qpmin=0 / qpmax=69 / qpstep=4 / vbv_maxrate=2000 / vbv_bufsize=30000 / nal_hrd=none / filler=0 / ip_ratio=1.40 / aq=1:1.00
    Color range : Limited
    Color primaries : BT.709
    Transfer characteristics : BT.709
    Matrix coefficients : BT.709

    Audio #1
    ID : 2
    Format : AC-3
    Format/Info : Audio Coding 3
    Mode extension : CM (complete main)
    Format settings, Endianness : Big
    Codec ID : ac-3
    Duration : 42 min
    Bit rate mode : Constant
    Bit rate : 192 kb/s
    Channel(s) : 2 channels
    Channel positions : Front: L R
    Sampling rate : 48.0 kHz
    Frame rate : 31.250 FPS (1536 spf)
    Bit depth : 16 bits
    Compression mode : Lossy
    Stream size : 57.9 MiB (8%)
    Language : Russian
    Default : Yes
    Alternate group : 1

    Audio #2
    ID : 3
    Format : AC-3
    Format/Info : Audio Coding 3
    Mode extension : CM (complete main)
    Format settings, Endianness : Big
    Codec ID : ac-3
    Duration : 42 min
    Bit rate mode : Constant
    Bit rate : 192 kb/s
    Channel(s) : 2 channels
    Channel positions : Front: L R
    Sampling rate : 48.0 kHz
    Frame rate : 31.250 FPS (1536 spf)
    Bit depth : 16 bits
    Compression mode : Lossy
    Stream size : 57.9 MiB (8%)
    Language : English
    Default : No
    Alternate group : 1



    Внимание! В сериале присутствуют ненормативная лексика!

    Скриншоты:
    скриншот   скриншот   скриншот   скриншот   скриншот   скриншот   скриншот  
    скриншот  

    Раздача ведётся путём добавления новых серий. Добавлена 8 серия (07.03.2017).Просьба перекачать торрент файл.

    pb.wtf



  • Скачать Шесть через торрент http://i89.fastpic.ru/big/2017/0211/38/b2aa5abee2032dab1ab9488527126c38.jpg Скачать фильм Шесть через торрент бесплантно в хорошем качестве qw.png Сериал "Шесть" расскажет о буднях элитного подразделения «морских котиков» под названием «Команда 6». Лучшие из лучших, эти члены ... 10 10 9
    Info! Золотая раздача, скачанное не засчитывается.
    Торрент: Зарегистрирован [2017-03-07 06:10] · скачан: 30 раз
    Статус: √ проверено
    Размер: 5.99 GB
    Как cкачать? Как скачать Шесть через торрент | qTorrent

    % Раздел Тема Автор DL S | L
    Зарубежные сериалы [ 3.9 GB ] Шесть / Шестой отряд / Six / 1 сезон / Серии 1-8 из 8 [2017 военный история WEB-DLRip] MVO [NewStudio] bober100 Скачать
    1 | 0


    Последний раз редактировалось: GEKADOL (2017-03-07 06:10), всего редактировалось 1 раз

    28-11-2019 20:33  

    Отключить всю рекламу на сайте

    03-03-2017 16:06 Шесть Скачать торрент  

    Что то отзывов по шестерке не видать )))pb.wtf



    07-03-2017 07:53 Шесть Скачать торрент  

    Reanimus писал(а):

    Что то отзывов по шестерке не видать )))

    У нас с этим делом туговато) pb.wtf



    07-03-2017 09:53 Шесть Скачать торрент  

    Reanimus, патриотичный американский сериал про их отряд. С долей иронии что солдаты наемные убийцы и как эта служба меняет жизни и семьи бойцов. Особо не затягивает, серии сильно не ждались. Падение черного ястреба лучше.pb.wtf



    07-03-2017 11:35 Шесть Скачать торрент  

    Burbon писал(а):

    Reanimus, патриотичный американский сериал про их отряд. С долей иронии что солдаты наемные убийцы и как эта служба меняет жизни и семьи бойцов. Особо не затягивает, серии сильно не ждались. Падение черного ястреба лучше.

    Вот бы коменты почаще писали!!!! pb.wtf



    10-03-2017 19:04 Шесть Скачать торрент  

    шлакpb.wtf



      Дорогой пользователь! Огромная просьба, поблагодарите релизера, оцените раздачу и оставьте свои комментарий, если Вы скачали Шесть через торрент бесплатно! Внесите свою лепту в развитие PiratBit!
      Комментировать посты могут только пользователи прошедшие не сложную регистрацию
      Показать сообщения:    

      Шесть через торрент
      Скачать бесплатно Шесть
      Шесть скачать торрент
      Шесть смотреть онлайн
      Cкачать фильм Шесть бесплатно
      Шесть скачать торрент в хорошем качестве
      Шесть смотреть онлайн бесплатно в хорошем качестве


      Вы не можете начинать темы
      Вы не можете отвечать на сообщения
      Вы не можете редактировать свои сообщения
      Вы не можете удалять свои сообщения
      Вы не можете голосовать в опросах
      Вы не можете прикреплять файлы к сообщениям
      Вы можете скачивать файлы