Наша группа ВК в очередной раз забанена мы уходим в Телеграм, присоединяйтесь!!!

Лицензия

30

iTunes

мы

iTunes

1

1 сезон

Чернобыль

iTunes

1+1

iTunes

Закатать в асфальт

8 сезон

Игра престолов

1 сезон

Ральф против интернета

ИГРА 18+

pack

ВАЖНО

!!Акция!!

Alien_RageХит недели

RePack

Resident Evil 21
pack

RePack

Metro:Exodus

!!Акция!!

Alien_Rage

RePack

fifa19

RePack

Assassins Creed: Odyssey

RePack

NEED FOR SPEED™ PAYBACK

3 сезон

9 сезон

Бесстыжие 9 сезон

Все сериалы

все сериалы на PB.wtf

RePack

FAR CRY 5
Ребята, катастрофически не хватает 2730р. для оплаты серверов за АПРЕЛЬ (всвязи с блокировками трафик упал в 3 раза), 1-2р., выручайте.
  

Когда тебя нет / Cuando tú no estás (Марио Камус) [1966 г., Мелодрама, музыкальный, DVDRip-AVC, Профессиональный (многоголосый)] pb.wtf

Когда тебя нет через торрент pb.wtf

Размер: 2.42 GB | Добавлен: 2 года 3 мес. назад | Торрент скачан:6 раз
Скачать  

11-02-2017 08:38 Когда тебя нет Скачать торрент  

Когда тебя нет / Cuando tú no estás
Год выпуска: 1966
Страна: Испания
Жанр: Мелодрама, музыкальный
Продолжительность: 01:29:12
Перевод: Профессиональный (многоголосый)

Режиссер: Марио Камус

Премьера в мире: 12 декабря 1966

rating

В ролях: Рафаэль, Мария Хосе Альфонсо, Маргарет Петерс, Мариса Арока, Мари Паз Баллестерос, Мерседес Карраско, Конча Гомез Конде, Монсерат Хулио, Рикардо Люсия, Хосе Мартин, Рауль Матас, Анджел Менендез, Карлос Отеро, Эрасмо Паскаль

Описание: Начинающий певец Рафаэль, в течение нескольких лет выступавший в провинции, теперь готов завоевать столицу. Он не просто мечтает об успехе, он в нем уверен. Приехав в Мадрид, он находит себе импресарио, знакомится с талантливым композитором, а известная журналистка Лина берет на себя обязанности его пресс-агента. Все мысли артиста только о карьере, пока однажды он с первого взгляда не влюбляется в юную Лауру. Жизнь девушки окружена тайной, которую Рафаэлю предстоит узнать…

Качество: DVDRip-AVC
Формат: MKV
Видео кодек: MPEG4
Аудио кодек: AC3
Видео: MPEG-4 AVC, 3500 Кбит/с, 672x572@955x572, 25,000 кадров/сек
Аудио#1: Русский (AC3, 48,0 КГц, 2 ch, 192 Кбит/с)
Аудио#2: Испанский (AC3, 48,0 КГц, 2 ch, 192 Кбит/с)
Релиз от: dumbia




raw [info]: 672x572p 64:45 @ 25/1 fps (cfr)
x264 [info]: using SAR=64/45
x264 [info]: using cpu capabilities: MMX2 SSE2Fast LZCNT
x264 [info]: profile High, level 4.1
x264 [info]: frame I:680 Avg QP:19.98 size: 66180
x264 [info]: frame P:27229 Avg QP:22.56 size: 32201
x264 [info]: frame B:105899 Avg QP:25.34 size: 13403
x264 [info]: consecutive B-frames: 1.0% 2.2% 5.3% 17.2% 17.9% 48.7% 5.6% 1.5% 0.4% 0.1% 0.1% 0.0% 0.0% 0.0% 0.0% 0.0% 0.1%
-----
Общее
Уникальный идентификатор : 237660370041901904462613890216178901235 (0xB2CBB8EA57B7A5139FF8F319B2E660F3)
Полное имя : E:\Kogda.Tebja.Net.1966.DVDRip-AVC.ExKinoRay.mkv
Формат : Matroska
Версия формата : Version 2
Размер файла : 2,42 Гбайт
Продолжительность : 1 ч. 29 м.
Общий поток : 3885 Кбит/сек
Дата кодирования : UTC 2017-02-11 04:10:06
Программа кодирования : mkvmerge v7.8.0 ('River Man') 32bit built on Apr 3 2015 12:11:22
Библиотека кодирования : libebml v1.3.1 + libmatroska v1.4.2

Видео
Идентификатор : 1
Формат : AVC
Формат/Информация : Advanced Video Codec
Профиль формата : High@L4.1
Параметр CABAC формата : Да
Параметр ReFrames формата : 14 кадров
Идентификатор кодека : V_MPEG4/ISO/AVC
Продолжительность : 1 ч. 29 м.
Битрейт : 3500 Кбит/сек
Ширина : 672 пикселя
Высота : 572 пикселя
Соотношение сторон : 5:3
Соотношение сторон в оригинале : 5:3
Режим частоты кадров : Постоянный
Частота кадров : 25,000 кадров/сек
Цветовое пространство : YUV
Субдискретизация насыщенности : 4:2:0
Битовая глубина : 8 бит
Тип развёртки : Прогрессивная
Бит/(Пиксели*Кадры) : 0.364
Размер потока : 2,13 Гбайт (88%)
Библиотека кодирования : x264 core 148 r2638 7599210
Настройки программы : cabac=1 / ref=14 / deblock=1:-2:-2 / analyse=0x3:0x133 / me=umh / subme=10 / psy=1 / psy_rd=1.05:0.15 / mixed_ref=1 / me_range=32 / chroma_me=1 / trellis=2 / 8x8dct=1 / cqm=0 / deadzone=21,11 / fast_pskip=0 / chroma_qp_offset=-3 / threads=4 / lookahead_threads=1 / sliced_threads=0 / nr=0 / decimate=0 / interlaced=0 / bluray_compat=0 / constrained_intra=0 / bframes=16 / b_pyramid=2 / b_adapt=2 / b_bias=0 / direct=3 / weightb=1 / open_gop=0 / weightp=2 / keyint=250 / keyint_min=25 / scenecut=40 / intra_refresh=0 / rc=2pass / mbtree=0 / bitrate=3500 / ratetol=1.0 / qcomp=0.60 / qpmin=0 / qpmax=69 / qpstep=4 / cplxblur=20.0 / qblur=0.5 / ip_ratio=1.40 / pb_ratio=1.30 / aq=1:1.00
Язык : English
Default : Да
Forced : Нет
Цветовой диапазон : Limited
Основные цвета : BT.601 NTSC
Характеристики трансфера : BT.601
Коэффициенты матрицы : BT.601

Аудио #1
Идентификатор : 2
Формат : AC-3
Формат/Информация : Audio Coding 3
Расширение режима : CM (complete main)
Параметр Endianness формата : Big
Идентификатор кодека : A_AC3
Продолжительность : 1 ч. 29 м.
Вид битрейта : Постоянный
Битрейт : 192 Кбит/сек
Каналы : 2 канала
Расположение каналов : Front: L R
Частота : 48,0 КГц
Частота кадров : 31,250 кадров/сек (1536 spf)
Метод сжатия : С потерями
Размер потока : 123 Мбайт (5%)
Язык : Russian
Default : Да
Forced : Нет

Аудио #2
Идентификатор : 3
Формат : AC-3
Формат/Информация : Audio Coding 3
Расширение режима : CM (complete main)
Параметр Endianness формата : Big
Идентификатор кодека : A_AC3
Продолжительность : 1 ч. 29 м.
Вид битрейта : Постоянный
Битрейт : 192 Кбит/сек
Каналы : 2 канала
Расположение каналов : Front: L R
Частота : 48,0 КГц
Частота кадров : 31,250 кадров/сек (1536 spf)
Метод сжатия : С потерями
Размер потока : 123 Мбайт (5%)
Язык : Spanish
Default : Нет
Forced : Нет

pb.wtf



Скачать Когда тебя нет через торрент http://pic1.kartinco.top/images/11/udtlx.jpg Скачать фильм Когда тебя нет через торрент бесплантно в хорошем качестве Описание: Начинающий певец Рафаэль, в течение нескольких лет выступавший в провинции, теперь готов завоевать столицу. Он не просто мечтает ... 10 10 1
Торрент: Зарегистрирован [2017-02-11 08:38] · скачан: 6 раз
Статус: √ проверено
Размер: 2.42 GB
Как cкачать? Как скачать Когда тебя нет через торрент | qTorrent


>> Регистрируемся здесь <<






Отзывы и комментарии о схеме читаем и пишем здесь: ---> Отзывы и комментарии о схеме

Новые благодарочки в телеграм довольных пользователей:
скриншот   скриншот   скриншот   скриншот   скриншот

11-02-2017 09:40 Когда тебя нет Скачать торрент  

dumbia, благодарю за раздачу. Немного поправил оформление, обратите пожалуйста внимание на Правила: https://pb.wtf/topic/58128/
В частности, в тех. данных видео не забывайте указывать частоту смены кадра (fps), в тех. данных аудио частоту дискретизации (KHz).
Постер заменил, его размеры не должны превышать 700*700 пикселей.pb.wtf



    Дорогой пользователь! Огромная просьба, поблагодарите релизера, оцените раздачу и оставьте свои комментарий, если Вы скачали Когда тебя нет через торрент бесплатно! Внесите свою лепту в развитие PiratBit!
    Комментировать посты могут только пользователи прошедшие не сложную регистрацию
    Показать сообщения:    

    Когда тебя нет через торрент
    Скачать бесплатно Когда тебя нет
    Когда тебя нет скачать торрент
    Когда тебя нет смотреть онлайн
    Cкачать фильм Когда тебя нет бесплатно
    Когда тебя нет скачать торрент в хорошем качестве
    Когда тебя нет смотреть онлайн бесплатно в хорошем качестве


    Вы не можете начинать темы
    Вы не можете отвечать на сообщения
    Вы не можете редактировать свои сообщения
    Вы не можете удалять свои сообщения
    Вы не можете голосовать в опросах
    Вы не можете прикреплять файлы к сообщениям
    Вы можете скачивать файлы