Ссылка на приватное зеркало нашего сайта всего за 1$. Внимание количество ограничено!!!

2 сезон

iTunes

1 сезон

1

iTunes

iTunes

iTunes

1 сезон

RePack

30

ИГРА 18+

pack

ВАЖНО

!!Акция!!

Alien_RageХит недели

RePack

MK11
pack

Забери бонус

RePack

jed

!!Акция!!

Alien_Rage

RePack

fifa19

RePack

Assassins Creed: Odyssey

RePack

NEED FOR SPEED™ PAYBACK

4 сезон

9 сезон

Бесстыжие 9 сезон

Все сериалы

все сериалы на PB.wtf

RePack

FAR CRY 5
  

Вдова / Серии 1-8 из 8 (Игорь Штернберг, Алексей Чистиков) [2014 г., драма, криминал, HDTVRip] pb.wtf

Вдова через торрент pb.wtf

Размер: 5.07 GB | Добавлен: 3 года 8 мес. назад | Торрент скачан:163 раза
Скачать  

11-02-2017 08:48 Вдова Скачать торрент  

Вдова Год выпуска: 2014
Страна: Россия
Жанр: драма, криминал
Продолжительность: 8 x ~ 00:51:38
Субтитры: Отсутствуют

Режиссер: Игорь Штернберг, Алексей Чистиков
Продюссер: Тимур Вайнштейн, Роман Елистратов, Юлия Сумачева

Премьера в мире: 10 сентября 2014
+зрителям, достигшим 16 лет



В Ролях: Виктория Толстоганова, Евгений Сидихин, Владимир Юматов, Степан Коршунов, Эдуард Чекмазов, Елена Ручкина, Игорь Штернберг, Карина Зверева, Максим Ковалевский, Эрик Гришин

Описание:Остросюжетная криминальная сага о женщине, вынужденной пойти на всё ради счастья и благополучия своей семьи. Главная героиня сериала Полина — домохозяйка, чье счастье разрушается в один миг: преступники на глазах сына убивают ее мужа, а брат попадает в тюрьму. Выясняется, что оба участвовали в контрабанде наркотиков и перешли дорогу опасному человеку. На женщину сваливаются проблемы семьи, шантаж со стороны кредиторов, а также бизнес супруга, оказавшийся незаконным. Героине ничего не остается, кроме как найти в себе силы и возглавить преступный бизнес, параллельно разбираясь в том, кто и за что убил ее мужа.

Качество: HDTVRip
Формат: AVI
Видео кодек: XviD
Аудио кодек: AC3
Видео: XviD 720x400,1 558 kb/s,(16:9),25.000
Аудио: AC-3,192 kb/s,48.0 kHz,(2 ch),16 bits

скриншот  скриншот  скриншот  скриншот  скриншот  скриншот  скриншот  скриншот  

General
Complete name : E:\Vdova.2014.HDTVRip\02.Vdova.2014.HDTVRip.avi
Format : AVI
Format/Info : Audio Video Interleave
File size : 650 MiB
Duration : 51 min 38 s
Overall bit rate : 1 760 kb/s
Writing application : VirtualDubMod 1.5.10.3 | www.virtualdub-fr.org || (build 2550/release)
Writing library : VirtualDubMod build 2550/release

Video
ID : 0
Format : MPEG-4 Visual
Format profile : Advanced Simple@L5
Format settings, BVOP : 1
Format settings, QPel : No
Format settings, GMC : No warppoints
Format settings, Matrix : Custom
Codec ID : XVID
Codec ID/Hint : XviD
Duration : 51 min 38 s
Bit rate : 1 558 kb/s
Width : 720 pixels
Height : 400 pixels
Display aspect ratio : 16:9
Frame rate : 25.000 FPS
Color space : YUV
Chroma subsampling : 4:2:0
Bit depth : 8 bits
Scan type : Progressive
Compression mode : Lossy
Bits/(Pixel*Frame) : 0.216
Stream size : 575 MiB (89%)
Writing library : XviD 73

Audio
ID : 1
Format : AC-3
Format/Info : Audio Coding 3
Mode extension : CM (complete main)
Format settings, Endianness : Big
Codec ID : 2000
Duration : 51 min 38 s
Bit rate mode : Constant
Bit rate : 192 kb/s
Channel(s) : 2 channels
Channel positions : Front: L R
Sampling rate : 48.0 kHz
Frame rate : 31.250 FPS (1536 spf)
Bit depth : 16 bits
Compression mode : Lossy
Stream size : 70.9 MiB (11%)
Alignment : Split accross interleaves
Interleave, duration : 40 ms (1.00 video frame)
Interleave, preload duratio : 500 ms
pb.wtf



Скачать Вдова через торрент http://pic1.kartinco.top/images/11/a7ngs.jpg Скачать фильм Вдова через торрент бесплантно в хорошем качестве Описание:Остросюжетная криминальная сага о женщине, вынужденной пойти на всё ради счастья и благополучия своей семьи. Главная героиня ... 9.6 10 9
Info! Серебряная раздача, засчитывается только 50% скачанного.
Торрент: Зарегистрирован [2017-02-11 08:48] · скачан: 163 раз
Статус: √ проверено
Размер: 5.07 GB
Как cкачать? Как скачать Вдова через торрент | qTorrent

% Раздел Тема Автор DL S | L
Зарубежные сериалы [ 94.67 GB ] Вдова / The Widow / Сезон: 1 / Серии: 1-8 из 8 [2019 UHD WEB-DL 2160p] [SDR] MVO [TVShows] sheker187 Скачать
1 | 0
Зарубежные сериалы [ 21.22 GB ] Вдова / The Widow / Сезон: 1 / Серии: 1-8 из 8 [2019 WEB-DL 1080p] [MVO] killermax2013 Скачать
1 | 0
Зарубежные сериалы [ 6.18 GB ] Вдова / The Widow / Сезон: 1 / Серии: 1-8 из 8 [2019 WEB-DLRip] [MVO] killermax2013 Скачать
1 | 0
Зарубежные сериалы [ 8.4 GB ] Вдова / The Widow / Сезон: 1 / Серии: 1-8 из 8 [2019 WEB-DLRip 720p] [MVO] killermax2013 Скачать
1 | 0
Зарубежные сериалы [ 20.23 GB ] Вдова / The Widow / Сезон: 1 / Серии: 1-8 из 8 [2019 WEB-DL 1080p] 2x[Sub] killermax2013 Скачать
1 | 0
Зарубежные сериалы [ 20.56 GB ] Вдова / The Widow / Сезон: 1 / Серии: 1-8 из 8 [2019 WEB-DL 1080p] [MVO] killermax2013 Скачать
1 | 0
Наши сериалы [ 12.27 GB ] Вдова / Сезон 1 / Серии 1-8 из 8 [2014 ьная WEB-DL 1080p] bober100 Скачать
1 | 0

28-11-2019 20:33  

Отключить всю рекламу на сайте

    Дорогой пользователь! Огромная просьба, поблагодарите релизера, оцените раздачу и оставьте свои комментарий, если Вы скачали Вдова через торрент бесплатно! Внесите свою лепту в развитие PiratBit!
    Комментировать посты могут только пользователи прошедшие не сложную регистрацию
    Показать сообщения:    

    Вдова через торрент
    Скачать бесплатно Вдова
    Вдова скачать торрент
    Вдова смотреть онлайн
    Cкачать фильм Вдова бесплатно
    Вдова скачать торрент в хорошем качестве
    Вдова смотреть онлайн бесплатно в хорошем качестве


    Вы не можете начинать темы
    Вы не можете отвечать на сообщения
    Вы не можете редактировать свои сообщения
    Вы не можете удалять свои сообщения
    Вы не можете голосовать в опросах
    Вы не можете прикреплять файлы к сообщениям
    Вы можете скачивать файлы