2 сезон

iTunes

MVO

1

2 сезон

iTunes

iTunes

1 сезон

RePack

30

Новинка

ВАЖНО

ИГРА 18+

pack

RePack

MK11
pack

Легкие деньги

RePack

jed

RePack

fifa19

RePack

RDR2

RePack

NEED FOR SPEED™ PAYBACK

4 сезон

9 сезон

Бесстыжие 9 сезон

Все сериалы

все сериалы на PB.wtf

RePack

FAR CRY 5

Anonymous, добрый день, мы не успеваем собрать деньги на оплату серверов за декабрь и январь, помогите нам пожалуйста в это трудное время. В качестве благодарности мы отключим Вам всю рекламу на сайте (укажите свой ник в строку Ваше имя)!

×
  
Magnet ссылка

Рита (Олег Фесенко) [2010, Россия, драма, мелодрама, DVDRip от AVP Studio] pb.wtf

Рита через торрент pb.wtf

Размер: 745 MB | Добавлен: 3 года 11 мес. назад | Торрент скачан:9 раз
Скачать  

11-02-2017 09:31 Рита Скачать торрент  

Рита
Страна: Россия
Производство: Кинокомпания "Магнум", Мосфильм

Жанр: драма, мелодрама
Год выпуска: 2010
Продолжительность: 01:30:30

Перевод: Не требуется
Cубтитры: нет
Оригинальная аудиодорожка: русский

Режиссер: Олег Фесенко

В ролях:
Елена Яковлева, Сергей Жигунов, Сергей Газаров, Евгения Уралова, Роман Македонский, Полина Рахленко, Георгий Токаев, Луиджи Тонэт, Ольга Демидова, Анастасия Дмитрова...
Об актёрах подробней

Описание:
Небольшой российский городок, ранняя осень. Маргарита, преподаватель физики, из-за разногласий с директором школы вынуждена оставить работу и заняться частными уроками. Именно так она знакомится с Андреем — отцом девочки, с которой ей предстоит заниматься. Между двумя одинокими людьми вспыхивают чувства, но они отчаянно сопротивляются внезапно свалившейся «напасти»: горький опыт прошлых разочарований не позволяет им сделать шаг навстречу друг другу. Но, как известно, любовь дается человеку свыше. Чтобы соединить влюбленных, на землю спускается ангел. Он не может выдать своего небесного происхождения и принимает образ... бомжа.

Источник: DVD9 R5
Качество видео: DVDRip
Формат видео: AVI

Видео: 704x352 (2,000:1), 25 fps, XviD ~ 1013 kbps avg, 0.164 bit/pixel
Аудио: 48 kHz, MP3 2.0, 128 kbps

Раздача от:
Общее
Полное имя : Rita.2010.DVDRip-745_[New-team]_by_AVP_Studio.avi
Формат : AVI
Формат/Информация : Audio Video Interleave
Размер файла : 745 Мбайт
Продолжительность : 1 ч. 30 м.
Общий поток : 1151 Кбит/сек
Программа кодирования : VirtualDubMod 1.5.10.3 | www.virtualdub-fr.org || (build 2550/release)
Библиотека кодирования : VirtualDubMod build 2550/release

Видео
Идентификатор : 0
Формат : MPEG-4 Visual
Профиль формата : Advanced Simple@L5
Параметр BVOP формата : 1
Параметр QPel формата : Нет
Параметр GMC формата : Без точки перехода
Параметр матрицы формата : Выборочная
Идентификатор кодека : XVID
Идентификатор кодека/Подсказка : XviD
Продолжительность : 1 ч. 30 м.
Битрейт : 1013 Кбит/сек
Ширина : 704 пикселя
Высота : 352 пикселя
Соотношение сторон : 2,000
Частота кадров : 25,000 кадров/сек
Цветовое пространство : YUV
Субдискретизация насыщенности : 4:2:0
Битовая глубина : 8 бит
Тип развёртки : Прогрессивная
Метод сжатия : С потерями
Бит/(Пиксели*Кадры) : 0.164
Размер потока : 656 Мбайт (88%)
Библиотека кодирования : XviD 73

Аудио
Идентификатор : 1
Формат : MPEG Audio
Версия формата : Version 1
Профиль формата : Layer 3
Идентификатор кодека : 55
Идентификатор кодека/Подсказка : MP3
Продолжительность : 1 ч. 30 м.
Вид битрейта : Постоянный
Битрейт : 128 Кбит/сек
Каналы : 2 канала
Частота : 48,0 КГц
Метод сжатия : С потерями
Размер потока : 82,9 Мбайт (11%)
Выравнивание : Соединение по промежуткам
Продолжительность промежутка : 40 мс. (1,00 видеокадр)
Время предзагрузки промежутка : 504 мс.
Библиотека кодирования : LAME3.99r
Настройки программы : -m s -V 4 -q 2 -lowpass 17 -b 128
pb.wtf



Скачать Рита через торрент http://s011.radikal.ru/i317/1702/6c/49134fb3985c.png Скачать фильм Рита через торрент бесплантно в хорошем качестве Описание:Небольшой российский городок, ранняя осень. Маргарита, преподаватель физики, из-за разногласий с директором школы вынуждена ... 5.5 10 2
Info! Золотая раздача, скачанное не засчитывается.
Торрент: Зарегистрирован [2017-02-11 09:31] · скачан: 9 раз
Статус: √ проверено
Размер: 745 MB
Как cкачать? Как скачать Рита через торрент | UTorrent

% Раздел Тема Автор DL S | L
Аниме [DVDrip, WEB-DLRip, HDrip] [ 1.98 GB ] Возвращение кота / Neko no ongaeshi [2002 аниме мультфильм семейны DVDRip MVO лицензия] Чувак Скачать
1 | 1
Авиасимуляторы [ 3.58 GB ] Ил-2 Штурмовик: Битва за Британию 2011 [Lossless RePackRU/EN Simulator / 3D] =Чувак= Скачать
1 | 0
Домашнее порно [ 19.29 GB ] [AmateurFacialsUK] Залитые спермой британские любительницы [Bukkake Straight SiteRip] ЧуМаДаН Скачать
1 | 0
3D Фильмы [ 46.61 GB ] Аватар 3Д / Avatar 3D [2009 Blu-ray disc 1080p] BD3D walle Скачать
1 | 0
Сборники (HD Video) [ 75 GB ] Шерлок Холмс: Дилогия / Sherlock Holmes: Dilogy [2009 2011 Германия Blu-ray 1080p] CEE Зайчина Скачать
1 | 0
Зарубежные сериалы [ 5.66 GB ] Угасшие / The Fades Сезон: 1 эпизод 1-6[2011 HDRip 400p] MVO закадровый wekotila Скачать
1 | 0
Наши фильмы (DVD фильмы) [ 6.76 GB ] Мастер и Маргарита [1994 Россия DVD9] R5 «Люксор» «Мастер Дистрибьюшн» voovaz Скачать
1 | 0

28-11-2019 20:33  

Отключить всю рекламу на сайте

    Дорогой пользователь! Огромная просьба, поблагодарите релизера, оцените раздачу и оставьте свои комментарий, если Вы скачали Рита через торрент бесплатно! Внесите свою лепту в развитие PiratBit!
    Комментировать посты могут только пользователи прошедшие не сложную регистрацию
    Показать сообщения:    

    Рита через торрент
    Скачать бесплатно Рита
    Рита скачать торрент
    Рита смотреть онлайн
    Cкачать фильм Рита бесплатно
    Рита скачать торрент в хорошем качестве
    Рита смотреть онлайн бесплатно в хорошем качестве


    Вы не можете начинать темы
    Вы не можете отвечать на сообщения
    Вы не можете редактировать свои сообщения
    Вы не можете удалять свои сообщения
    Вы не можете голосовать в опросах
    Вы не можете прикреплять файлы к сообщениям
    Вы можете скачивать файлы