Ссылка на приватное зеркало нашего сайта всего за 1$. Внимание количество ограничено!!!

2 сезон

iTunes

1 сезон

1

iTunes

iTunes

iTunes

1 сезон

RePack

30

ИГРА 18+

pack

ВАЖНО

!!Акция!!

Alien_RageХит недели

RePack

MK11
pack

Забери бонус

RePack

jed

!!Акция!!

Alien_Rage

RePack

fifa19

RePack

Assassins Creed: Odyssey

RePack

NEED FOR SPEED™ PAYBACK

4 сезон

9 сезон

Бесстыжие 9 сезон

Все сериалы

все сериалы на PB.wtf

RePack

FAR CRY 5
  

Пленник / Заложник / Captive (Джерри Джеймсон) [2015, триллер, драма, криминал, BDRip 720p] Дубляж - [Лицензия / iTunes] pb.wtf

Пленник через торрент pb.wtf

Размер: 4.63 GB | Добавлен: 3 года 8 мес. назад | Торрент скачан:126 раз
Скачать  

11-02-2017 15:34 Пленник Скачать торрент  

Пленник / Заложник / Captive

Год выпуска: 2015
Страна: США
Жанр: триллер, драма, криминал

Продолжительность: 01:37:07
Перевод: Дубляж - [Лицензия / iTunes]
Субтитры: русские, английские
Режиссер: Джерри Джеймсон
В ролях:

Эль Грэхэм (Paige), Кейт Мара (Ashley Smith), Клаудия Черч (Melissa), Джина Стюарт (Beatrice), Дэвид Ойелоуо (Brian Nichols), Дива Тайлер (Deputy Cynthia Hall), Э. Роджер Митчелл (Sgt. Teasley), Ричард Фуллертон (Judge Rowland Barnes), Майкл Кеннет Уильямс (Lt. John Chestnut), Джессика Ойелоуо (Meredith MacKenzie), Леонор Варела (Sgt. Carmen Sandoval), Майкл Хардинг (Commander Bradley Simpson)
Описание:
Мать-одиночка, борющаяся с наркотической зависимостью, взята в заложники в собственной квартире, мужчиной, который сбежал из тюрьмы и убил судью, назначенного на его дело.
Рейтинг:

MPAA: PG-13 - Детям до 13 лет просмотр не желателен
Качество: BDRip 720p
Формат: MKV
Видео: AVC, 1280x720 (16:9), 4931 kbps, 23,976 fps, 0,223 bpp
Аудио №1: русский / AC3 / 5.1 / 48 kHz / 384 kbps / |Дубляж, iTunes|
Аудио №2: английский / DTS / 5.1 / 48 kHz / 1509 kbps / 24 bit
Навигация по главам: есть

General
Unique ID : 239817788907875560229076664703577040559 (0xB46B39E0BC493114BC66159644F926AF)
Complete name : E:\Plennik.2O15.D.BDRip.72Op.mkv
Format : Matroska
Format version : Version 4 / Version 2
File size : 4.63 GiB
Duration : 1 h 37 min
Overall bit rate : 6 826 kb/s
Encoded date : UTC 2017-02-11 06:51:41
Writing application : mkvmerge v6.8.0 ('Theme for Great Cities') 32bit built on Mar 2 2014 21:27:07
Writing library : libebml v1.3.0 + libmatroska v1.4.1

Video
ID : 1
Format : AVC
Format/Info : Advanced Video Codec
Format profile : High@L4.1
Format settings, CABAC : Yes
Format settings, ReFrames : 5 frames
Codec ID : V_MPEG4/ISO/AVC
Duration : 1 h 37 min
Bit rate : 4 931 kb/s
Width : 1 280 pixels
Height : 720 pixels
Display aspect ratio : 16:9
Frame rate mode : Constant
Frame rate : 23.976 (24000/1001) FPS
Color space : YUV
Chroma subsampling : 4:2:0
Bit depth : 8 bits
Scan type : Progressive
Bits/(Pixel*Frame) : 0.223
Stream size : 3.25 GiB (70%)
Writing library : x264 core 148 r2638 7599210
Encoding settings : cabac=1 / ref=5 / deblock=1:-3:-3 / analyse=0x3:0x113 / me=umh / subme=8 / psy=1 / psy_rd=1.00:0.00 / mixed_ref=1 / me_range=16 / chroma_me=1 / trellis=1 / 8x8dct=1 / cqm=0 / deadzone=21,11 / fast_pskip=1 / chroma_qp_offset=-2 / threads=18 / lookahead_threads=3 / sliced_threads=0 / nr=0 / decimate=1 / interlaced=0 / bluray_compat=0 / constrained_intra=0 / bframes=3 / b_pyramid=2 / b_adapt=2 / b_bias=0 / direct=3 / weightb=1 / open_gop=0 / weightp=2 / keyint=240 / keyint_min=24 / scenecut=40 / intra_refresh=0 / rc_lookahead=50 / rc=2pass / mbtree=1 / bitrate=4931 / ratetol=1.0 / qcomp=0.60 / qpmin=0 / qpmax=69 / qpstep=4 / cplxblur=20.0 / qblur=0.5 / ip_ratio=1.40 / aq=1:1.00
Language : English
Default : Yes
Forced : No

Audio #1
ID : 2
Format : AC-3
Format/Info : Audio Coding 3
Mode extension : CM (complete main)
Format settings, Endianness : Big
Codec ID : A_AC3
Duration : 1 h 37 min
Bit rate mode : Constant
Bit rate : 384 kb/s
Channel(s) : 6 channels
Channel positions : Front: L C R, Side: L R, LFE
Sampling rate : 48.0 kHz
Frame rate : 31.250 FPS (1536 spf)
Compression mode : Lossy
Stream size : 267 MiB (6%)
Language : Russian
Default : Yes
Forced : Yes

Audio #2
ID : 3
Format : DTS
Format/Info : Digital Theater Systems
Mode : 16
Format settings, Endianness : Big
Codec ID : A_DTS
Duration : 1 h 37 min
Bit rate mode : Constant
Bit rate : 1 509 kb/s
Channel(s) : 6 channels
Channel positions : Front: L C R, Side: L R, LFE
Sampling rate : 48.0 kHz
Frame rate : 93.750 FPS (512 spf)
Bit depth : 24 bits
Compression mode : Lossy
Stream size : 1.02 GiB (22%)
Language : English
Default : No
Forced : No

Text #1
ID : 4
Format : UTF-8
Codec ID : S_TEXT/UTF8
Codec ID/Info : UTF-8 Plain Text
Language : English
Default : No
Forced : No

Text #2
ID : 5
Format : UTF-8
Codec ID : S_TEXT/UTF8
Codec ID/Info : UTF-8 Plain Text
Language : Russian
Default : Yes
Forced : No

Text #3
ID : 6
Format : UTF-8
Codec ID : S_TEXT/UTF8
Codec ID/Info : UTF-8 Plain Text
Title : SDH
Language : English
Default : No
Forced : No

Menu
00:00:00.000 : en:00:00:00.000
00:05:24.366 : en:00:05:24.366
00:10:19.244 : en:00:10:19.244
00:14:30.912 : en:00:14:30.912
00:19:38.052 : en:00:19:38.052
00:25:40.664 : en:00:25:40.664
00:31:23.548 : en:00:31:23.548
00:37:18.736 : en:00:37:18.736
00:43:18.179 : en:00:43:18.179
00:47:06.782 : en:00:47:06.782
00:52:34.568 : en:00:52:34.568
00:57:48.507 : en:00:57:48.507
01:04:46.341 : en:01:04:46.341
01:11:44.884 : en:01:11:44.884
01:16:59.031 : en:01:16:59.031
01:21:53.742 : en:01:21:53.742
01:27:58.857 : en:01:27:58.857
01:32:20.368 : en:01:32:20.368
pb.wtf



Скачать Пленник через торрент http://i3.imageban.ru/out/2017/02/11/c03849723073d61455e8645fec46de9c.jpg Скачать фильм Пленник через торрент бесплантно в хорошем качестве Описание: Мать-одиночка, борющаяся с наркотической зависимостью, взята в заложники в собственной квартире, мужчиной, который сбежал из ... 10 10 4
Торрент: Зарегистрирован [2017-02-11 15:34] · скачан: 126 раз
Статус: T временная
Размер: 4.63 GB
Как cкачать? Как скачать Пленник через торрент | qTorrent

28-11-2019 20:33  

Отключить всю рекламу на сайте

11-02-2017 16:04 Пленник Скачать торрент  

Забираю заценим.pb.wtf



11-02-2017 18:26 Пленник Скачать торрент  

fanta86 писал(а):

Забираю заценим.

Как кино?pb.wtf



11-02-2017 19:53 Пленник Скачать торрент  

Почему временная если Дубляж - [Лицензия / iTunes]?pb.wtf
K-Lexx- писал(а):

Сцен-рип, то есть рип с настройками, ориентированными на быстрое кодирование видео, а не на качество.



12-02-2017 03:24 Пленник Скачать торрент  

как кено-то?pb.wtf



    Дорогой пользователь! Огромная просьба, поблагодарите релизера, оцените раздачу и оставьте свои комментарий, если Вы скачали Пленник через торрент бесплатно! Внесите свою лепту в развитие PiratBit!
    Комментировать посты могут только пользователи прошедшие не сложную регистрацию
    Показать сообщения:    

    Пленник через торрент
    Скачать бесплатно Пленник
    Пленник скачать торрент
    Пленник смотреть онлайн
    Cкачать фильм Пленник бесплатно
    Пленник скачать торрент в хорошем качестве
    Пленник смотреть онлайн бесплатно в хорошем качестве


    Вы не можете начинать темы
    Вы не можете отвечать на сообщения
    Вы не можете редактировать свои сообщения
    Вы не можете удалять свои сообщения
    Вы не можете голосовать в опросах
    Вы не можете прикреплять файлы к сообщениям
    Вы можете скачивать файлы