Ссылка на приватное зеркало нашего сайта всего за 1$. Внимание количество ограничено!!!

2 сезон

iTunes

1 сезон

1

2 сезон

2 сезон

iTunes

1 сезон

RePack

30

Ultimate

ВАЖНО

ИГРА 18+

pack

RePack

MK11
pack

Забери бонус

RePack

jed

!!Акция!!

Alien_Rage

RePack

fifa19

RePack

Assassins Creed: Odyssey

RePack

NEED FOR SPEED™ PAYBACK

4 сезон

9 сезон

Бесстыжие 9 сезон

Все сериалы

все сериалы на PB.wtf

RePack

FAR CRY 5
  

Табу / Taboo / Сезон 1 / Серии 1-8 из 8 (Андерс Энгстрем, Кристоффер Нюхольм) [2017 , драма, HDTVRip-AVC] Профессиональный многоголосый [LostFilm] От ExKinoRay pb.wtf

Табу через торрент pb.wtf

Раздают: 1 [ 178 KB/s ]
Размер: 7.6 GB | Добавлен: 3 года 8 мес. назад | Торрент скачан:771 раз
Скачать  

12-02-2017 01:14 Табу Скачать торрент  




Год выпуска: 2017

Страна: Великобритания
Жанр: драма

Продолжительность: 00:55:01
Перевод: Профессиональный многоголосый [LostFilm]
Субтитры: Русские английские
Режиссер: Андерс Энгстрем, Кристоффер Нюхольм
В ролях:

Том Харди (James Keziah Delaney), Дэвид Хейман (Brace), Джонатан Прайс (Sir Stuart Strange), Уна Чаплин (Zilpha Geary), Ричард Диксон (John Pettifer), Лео Билл (Benjamin Wilton), Эдвард Хогг (Godfrey), Ruby-May Martinwood (Winter), Джесси Бакли (Lorna Bow), Джейсон Уоткинс (Solomon Coop), Стивен Грэм (Atticus), Франка Потенте (Helga)
Описание:
Считающийся погибшим, авантюрист и искатель приключений Джеймс Кезиах Делейни вновь в 1814 году, после 10 лет путешествий в Африке, появляется в Лондоне, стремясь отомстить за смерть своего отца. Делейни возвращается, чтобы обнаружить, что ему было оставлено отцом таинственное наследство и строит свою собственную корабельную империю в начале 1800-х годов, играя в опасную игру между двумя воюющими странами - Англией и Америкой...
Мировая премьера: 7 января 2017
rating

Rip by
Качество: HDTVRip-AVC
Формат: MKV
Видео: AVC, 1024x576 (16:9), 1650 kbps, 25 fps, 0,112 bpp
Аудио №1: русский / AC3 / 5.1 / 48 kHz / 384 kbps /
Аудио №2: английский / AC3 / 5.1 / 48 kHz / 384 kbps /
General
Unique ID : 196261634013945195944601049838266032308 (0x93A69DA44B59519F922E3BB223C720B4)
Complete name : E:\Taboo.S01.2017.LostFilm.AVC.ExKinoRay\Taboo.S01E01.2017.LostFilm.AVC.ExKinoRay.mkv
Format : Matroska
Format version : Version 2
File size : 952 MiB
Duration : 55 min
Overall bit rate : 2 419 kb/s
Movie name : Taboo S01E01 2017 from ExKinoRay
Encoded date : UTC 2017-02-11 05:47:11
Writing application : mkvmerge v7.6.0 ('Garden of Dreams') 32bit built on Feb 11 2015 00:18:47
Writing library : libebml v1.3.1 + libmatroska v1.4.2

Video
ID : 1
Format : AVC
Format/Info : Advanced Video Codec
Format profile : High@L4.1
Format settings, CABAC : Yes
Format settings, ReFrames : 12 frames
Codec ID : V_MPEG4/ISO/AVC
Duration : 55 min
Bit rate : 1 650 kb/s
Width : 1 024 pixels
Height : 576 pixels
Display aspect ratio : 16:9
Frame rate mode : Constant
Frame rate : 25.000 FPS
Color space : YUV
Chroma subsampling : 4:2:0
Bit depth : 8 bits
Scan type : Progressive
Bits/(Pixel*Frame) : 0.112
Stream size : 631 MiB (66%)
Title : Enigma
Writing library : x264 core 144 r2525 40bb568
Encoding settings : cabac=1 / ref=12 / deblock=1:-2:-2 / analyse=0x3:0x113 / me=umh / subme=10 / psy=1 / psy_rd=1.00:0.05 / mixed_ref=1 / me_range=32 / chroma_me=1 / trellis=2 / 8x8dct=1 / cqm=0 / deadzone=21,11 / fast_pskip=1 / chroma_qp_offset=-3 / threads=12 / lookahead_threads=3 / sliced_threads=0 / nr=0 / decimate=1 / interlaced=0 / bluray_compat=0 / constrained_intra=0 / bframes=10 / b_pyramid=2 / b_adapt=2 / b_bias=0 / direct=3 / weightb=1 / open_gop=0 / weightp=2 / keyint=250 / keyint_min=25 / scenecut=40 / intra_refresh=0 / rc_lookahead=40 / rc=2pass / mbtree=0 / bitrate=1650 / ratetol=1.0 / qcomp=0.60 / qpmin=0 / qpmax=51 / qpstep=4 / cplxblur=20.0 / qblur=0.5 / vbv_maxrate=50000 / vbv_bufsize=62500 / nal_hrd=none / filler=0 / ip_ratio=1.40 / pb_ratio=1.30 / aq=1:1.00
Language : English
Default : Yes
Forced : No
Color range : Limited
Color primaries : BT.709
Transfer characteristics : BT.709
Matrix coefficients : BT.709

Audio #1
ID : 2
Format : AC-3
Format/Info : Audio Coding 3
Mode extension : CM (complete main)
Format settings, Endianness : Big
Codec ID : A_AC3
Duration : 55 min
Bit rate mode : Constant
Bit rate : 384 kb/s
Channel(s) : 6 channels
Channel positions : Front: L C R, Side: L R, LFE
Sampling rate : 48.0 kHz
Frame rate : 31.250 FPS (1536 spf)
Compression mode : Lossy
Stream size : 151 MiB (16%)
Title : LostFilm
Language : Russian
Default : Yes
Forced : No

Audio #2
ID : 3
Format : AC-3
Format/Info : Audio Coding 3
Mode extension : CM (complete main)
Format settings, Endianness : Big
Codec ID : A_AC3
Duration : 55 min
Bit rate mode : Constant
Bit rate : 384 kb/s
Channel(s) : 6 channels
Channel positions : Front: L C R, Side: L R, LFE
Sampling rate : 48.0 kHz
Frame rate : 31.250 FPS (1536 spf)
Compression mode : Lossy
Delay relative to video : 3 ms
Stream size : 151 MiB (16%)
Language : English
Default : No
Forced : No

Text #1
ID : 4
Format : UTF-8
Codec ID : S_TEXT/UTF8
Codec ID/Info : UTF-8 Plain Text
Language : Russian
Default : No
Forced : No

Text #2
ID : 5
Format : UTF-8
Codec ID : S_TEXT/UTF8
Codec ID/Info : UTF-8 Plain Text
Language : English
Default : No
Forced : No
pb.wtf



Скачать Табу через торрент http://pic1.kartinco.top/images/11/yjz7m.jpg Скачать фильм Табу через торрент бесплантно в хорошем качестве Описание: Считающийся погибшим, авантюрист и искатель приключений Джеймс Кезиах Делейни вновь в 1814 году, после 10 лет путешествий в ... 10 10 16
× Info от релизера! Добавлена 8 серия Финал сезона
Info! Золотая раздача, скачанное не засчитывается.
Торрент: Зарегистрирован [2017-03-05 21:37] · скачан: 771 раз
Статус: √ проверено
Размер: 7.6 GB
Как cкачать? Как скачать Табу через торрент | qTorrent

% Раздел Тема Автор DL S | L
Зарубежные сериалы [ 7.46 GB ] Табу / Taboo / Сезон 1 / Серии 1-8 из 8 [2017 WEB-DLRip-AVC] многоголосый [NewStudio] от ExKinoRay Enigma2010 Скачать
1 | 0


Последний раз редактировалось: Enigma2010 (2017-03-05 21:53), всего редактировалось 5 раз(а)

28-11-2019 20:33  

Отключить всю рекламу на сайте

    Дорогой пользователь! Огромная просьба, поблагодарите релизера, оцените раздачу и оставьте свои комментарий, если Вы скачали Табу через торрент бесплатно! Внесите свою лепту в развитие PiratBit!
    Комментировать посты могут только пользователи прошедшие не сложную регистрацию
    Показать сообщения:    

    Табу через торрент
    Скачать бесплатно Табу
    Табу скачать торрент
    Табу смотреть онлайн
    Cкачать фильм Табу бесплатно
    Табу скачать торрент в хорошем качестве
    Табу смотреть онлайн бесплатно в хорошем качестве


    Вы не можете начинать темы
    Вы не можете отвечать на сообщения
    Вы не можете редактировать свои сообщения
    Вы не можете удалять свои сообщения
    Вы не можете голосовать в опросах
    Вы не можете прикреплять файлы к сообщениям
    Вы можете скачивать файлы