Ссылка на приватное зеркало нашего сайта всего за 1$. Внимание количество ограничено!!!

2 сезон

iTunes

1 сезон

1

2 сезон

2 сезон

iTunes

1 сезон

RePack

30

Ultimate

ВАЖНО

ИГРА 18+

pack

RePack

MK11
pack

Забери бонус

RePack

jed

!!Акция!!

Alien_Rage

RePack

fifa19

RePack

Assassins Creed: Odyssey

RePack

NEED FOR SPEED™ PAYBACK

4 сезон

9 сезон

Бесстыжие 9 сезон

Все сериалы

все сериалы на PB.wtf

RePack

FAR CRY 5
  

Человек на Кэррион-роуд / The Hollow Point (Гонсало Лопес-Гальего) [2016, Криминал, триллер, BDRemux 1080p] от ExKinoRay / AVO pb.wtf

Человек на Кэррион-роуд через торрент pb.wtf

Размер: 19.14 GB | Добавлен: 3 года 9 мес. назад | Торрент скачан:24 раза
Скачать  

12-02-2017 02:33 Человек на Кэррион-роуд Скачать торрент  

Информация о фильме
Название: Человек на Кэррион-роуд
Оригинальное название: The Hollow Point
Год выхода: 2016
Жанр: Криминал, триллер
Страна: США
Студия: Atlas Independent
Продолжительность: 01:37:10
Перевод: Авторский | Михаил Чадов
Субтитры: Русские, английские

Режиссер: Гонсало Лопес-Гальего

В ролях: Линн Коллинз, Джон Легуизамо, Патрик Уилсон, Иэн МакШейн, Джеймс Белуши, Дэвид Стивенс, Нэйтан Стивенс, Майкл Флинн, Хезер Бирс, Дебора Ли Дуглас

О фильме:

Офицер Уоллис вернулся в свой родной город, чтобы стать шерифом. Только город этот находится на границе с Мексикой и активно снабжает мексиканские картели бронебойными патронами. Бывший друг Уоллиса, занимался контрабандой и решил выйти из дела. За это он попал в некий список и по его следу идет наемник по кличке "мясник". Все бы ничего, но в этот список попадает и бывшая девушка нашего героя...

rating

Качество: BDRemux 1080p
Формат: MKV
Видео: MPEG-4 AVC, 1920x1080, 24.0 Mbit/s, 23.976 fps
Аудио #01: 48 kHz, DTS-HD MA, 5.1, 1920 Kbps | Авторский |
Аудио #02: 48 kHz, AC3, 5.1, 448 Kbps | Авторский |
Аудио #03: 48 kHz, DTS-HD MA, 5.1, 1810 kbps | Оригинал |
General

Unique ID : 209944961162741315123070867372465260940 (0x9DF1EDC1C039F763A1525FF262E1098C)

Complete name : G:VideoThe.Hollow.Point.2016.AVO.BDREMUX.1080p.ExKinoRay.mkv

Format : Matroska

Format version : Version 4 / Version 2

File size : 19.1 GiB

Duration : 1 h 37 min

Overall bit rate mode : Variable

Overall bit rate : 28.2 Mb/s

Encoded date : UTC 2017-02-12 01:58:30

Writing application : mkvmerge v8.3.0 ('Over the Horizon') 64bit

Writing library : libebml v1.3.1 + libmatroska v1.4.2

Video

ID : 1

Format : AVC

Format/Info : Advanced Video Codec

Format profile : High@L4.1

Format settings, CABAC : Yes

Format settings, ReFrames : 3 frames

Format settings, GOP : M=3, N=12

Codec ID : V_MPEG4/ISO/AVC

Duration : 1 h 37 min

Bit rate mode : Variable

Bit rate : 24.0 Mb/s

Maximum bit rate : 35.0 Mb/s

Width : 1 920 pixels

Height : 1 080 pixels

Display aspect ratio : 16:9

Frame rate mode : Constant

Frame rate : 23.976 (24000/1001) FPS

Standard : NTSC

Color space : YUV

Chroma subsampling : 4:2:0

Bit depth : 8 bits

Scan type : Progressive

Bits/(Pixel*Frame) : 0.482

Stream size : 16.3 GiB (85%)

Language : English

Default : No

Forced : No

Color range : Limited

Color primaries : BT.709

Transfer characteristics : BT.709

Matrix coefficients : BT.709

Audio #1

ID : 2

Format : DTS

Format/Info : Digital Theater Systems

Format profile : MA / Core

Mode : 16

Format settings, Endianness : Big

Codec ID : A_DTS

Duration : 1 h 37 min

Bit rate mode : Variable / Constant

Bit rate : 1 920 kb/s / 1 509 kb/s

Channel(s) : 6 channels

Channel positions : Front: L C R, Side: L R, LFE

Sampling rate : 48.0 kHz

Frame rate : 93.750 FPS (512 spf)

Bit depth : 16 bits

Compression mode : Lossless / Lossy

Stream size : 1.32 GiB (7%)

Title : AVO [Chadov]

Language : Russian

Default : Yes

Forced : No

Audio #2

ID : 3

Format : AC-3

Format/Info : Audio Coding 3

Mode extension : CM (complete main)

Format settings, Endianness : Big

Codec ID : A_AC3

Duration : 1 h 37 min

Bit rate mode : Constant

Bit rate : 448 kb/s

Channel(s) : 6 channels

Channel positions : Front: L C R, Side: L R, LFE

Sampling rate : 48.0 kHz

Frame rate : 31.250 FPS (1536 spf)

Bit depth : 16 bits

Compression mode : Lossy

Stream size : 311 MiB (2%)

Title : AVO-AC3 [М.Чадов по переводу Perevodman]

Language : Russian

Default : No

Forced : No

Audio #3

ID : 4

Format : DTS

Format/Info : Digital Theater Systems

Format profile : MA / Core

Mode : 16

Format settings, Endianness : Big

Codec ID : A_DTS

Duration : 1 h 37 min

Bit rate mode : Variable / Constant

Bit rate : 1 810 kb/s / 1 509 kb/s

Channel(s) : 6 channels

Channel positions : Front: L C R, Side: L R, LFE

Sampling rate : 48.0 kHz

Frame rate : 93.750 FPS (512 spf)

Bit depth : 16 bits

Compression mode : Lossless / Lossy

Stream size : 1.23 GiB (6%)

Title : Original

Language : English

Default : No

Forced : No

Text #1

ID : 5

Format : UTF-8

Codec ID : S_TEXT/UTF8

Codec ID/Info : UTF-8 Plain Text

Duration : 1 h 33 min

Bit rate : 62 b/s

Count of elements : 1003

Stream size : 42.7 KiB (0%)

Title : Full [Перевод от Perevodman]

Language : Russian

Default : No

Forced : No

Text #2

ID : 6

Format : UTF-8

Codec ID : S_TEXT/UTF8

Codec ID/Info : UTF-8 Plain Text

Duration : 1 h 33 min

Bit rate : 42 b/s

Count of elements : 1085

Stream size : 28.7 KiB (0%)

Title : Full

Language : English

Default : No

Forced : No

Menu

00:00:00.000 : en:00:00:00.000

00:14:30.036 : en:00:14:30.036

00:34:53.925 : en:00:34:53.925

00:55:06.929 : en:00:55:06.929

01:12:05.279 : en:01:12:05.279

01:28:29.888 : en:01:28:29.888
скриншот  скриншот  скриншот  
Релиз от: Автор релиза: pb.wtf



Скачать Человек на Кэррион-роуд через торрент http://s019.radikal.ru/i617/1702/12/a4585d4bcd7d.jpg Скачать фильм Человек на Кэррион-роуд через торрент бесплантно в хорошем качестве О фильме:Офицер Уоллис вернулся в свой родной город, чтобы стать шерифом. Только город этот находится на границе с Мексикой и активно ... 10 10 3
Info! Золотая раздача, скачанное не засчитывается.
Торрент: Зарегистрирован [2017-02-12 02:33] · скачан: 24 раз
Статус: √ проверено
Размер: 19.14 GB
Как cкачать? Как скачать Человек на Кэррион-роуд через торрент | qTorrent

28-11-2019 20:33  

Отключить всю рекламу на сайте

    Дорогой пользователь! Огромная просьба, поблагодарите релизера, оцените раздачу и оставьте свои комментарий, если Вы скачали Человек на Кэррион-роуд через торрент бесплатно! Внесите свою лепту в развитие PiratBit!
    Комментировать посты могут только пользователи прошедшие не сложную регистрацию
    Показать сообщения:    

    Человек на Кэррион-роуд через торрент
    Скачать бесплатно Человек на Кэррион-роуд
    Человек на Кэррион-роуд скачать торрент
    Человек на Кэррион-роуд смотреть онлайн
    Cкачать фильм Человек на Кэррион-роуд бесплатно
    Человек на Кэррион-роуд скачать торрент в хорошем качестве
    Человек на Кэррион-роуд смотреть онлайн бесплатно в хорошем качестве


    Вы не можете начинать темы
    Вы не можете отвечать на сообщения
    Вы не можете редактировать свои сообщения
    Вы не можете удалять свои сообщения
    Вы не можете голосовать в опросах
    Вы не можете прикреплять файлы к сообщениям
    Вы можете скачивать файлы