Ссылка на приватное зеркало всего за 1$. Внимание количество ограничено!!!

iTunes

iTunes

iTunes

1

iTunes

iTunes

iTunes

iTunes

iTunes

30
pack

$ от Little Big

ВАЖНО

!!Акция!!

Alien_RageХит недели

RePack

Resident Evil 21

ИГРА 18+

pack

RePack

jed

!!Акция!!

Alien_Rage

RePack

fifa19

RePack

Assassins Creed: Odyssey

RePack

NEED FOR SPEED™ PAYBACK

4 сезон

9 сезон

Бесстыжие 9 сезон

Все сериалы

все сериалы на PB.wtf

RePack

FAR CRY 5
  

Шоу начинается / Showtime (Том Дей) [2002 г., Комедия, боевик, криминал, WEB-DL (1080p), Дубляж + DVO] pb.wtf

Шоу начинается через торрент pb.wtf

Размер: 4.32 GB | Добавлен: 3 года 5 мес. назад | Торрент скачан:206 раз
Скачать  

12-02-2017 05:37 Шоу начинается Скачать торрент  

Шоу начинается / Showtime
Год выпуска: 2002
Страна: США, Австралия
Жанр: Комедия, боевик, криминал
Продолжительность: 01:35:21
Перевод: Дубляж +профессиональный (двухголосый)+ Оригинал
Субтитры: Русские, английские

Режиссер: Том Дей

В ролях: Эдди Мёрфи, Роберт Де Ниро, Рене Руссо, Рэйчел Харрис, Зайд Фарид, Алекс Борштейн, Холли Мэндел, Маршалл Манеш, Нестор Серрано, Т.Дж. Кросс, Мос Деф, Джеймс Родэй, Джоэль Херт Джонс, Крис Харрисон, Перри Пельтц, Эми Пауэлл, Дебра Снелл, Крис Уфлэнд, Педро Дамиан, Питер Джекобсон

Описание: Детектив департамента полиции Лос-Анджелеса Митч Престон — человек, не терпящий вздора, а также не отличающийся словоохотливостью, терпением и большим вкусом. Все, что ему надо, — это чтобы его оставили в покое, и он мог спокойно выполнять то, чем занимается на протяжении вот уже более двадцати лет, — свою работу. Его абсолютная противоположность — патрульный офицер Трей Селларз. С бoльшим удовольствием он бы изображал полицейского на экране, нежели выполнял его прямые обязанности в реальной жизни. Днем он разгоняет карманных воров, а вечером репетирует эффектные выпады перед зеркалом, и все это в ожидании события, которое изменит всю его жизнь. Как-то ночью Трей оказывается случайным свидетелем тайной операции Митча по обезвреживанию банды наркоторговцев и невольно срывает ее. А несколько мгновений спустя ночную мглу разрезают вспышки фотокамер, и телевизионная бригада новостей врывается на место действия, уже окончательно и бесповоротно лишая Митча возможности догнать беглецов. Волею судеб Митч оказывается в поле зрения телевизионного продюсера Чейзы Рензи. Для Митча — это ад на земле. Для Трея — мечта, ставшая реальностью.

Качество: WEB-DL (1080p)
Формат: MKV
Видео кодек: AVC
Аудио кодек: AC3
Видео: MPEG-4 AVC, (1920x1080), 5 146 Кбит/с, 23.976 кадра/сек
Аудио#1: AC3, 6 ch,384 kbps (Rus) 48.0 KHz дубляж
Аудио#2: AC3, 6 ch,384 kbps (Rus) 48.0 KHz профессиональный (двухголосый)
Аудио#3: AC3, 6 ch,448 kbps (Eng) 48.0 KHz Оригинал
скриншот   скриншот   скриншот  

Тип потока: Видео
Длительность: 01:35:23
Кодек: AVC
Кодек/описание: Advanced Video Codec
Кодек/профиль: Main@L4.0
Кодек/ID: V_MPEG4/ISO/AVC
Кодек/CABAC: Yes
Кодек/ReFrames: 2 frames
Размеры изображения: 1920 x 1080 (16:9)
Частота кадров: 23.976 fps
Частота кадров/тип: Constant
Размер потока: 3.43 GiB (79%)
Битрейт: 5 146 Kbps
Битрейт/макс: 768 Kbps
Битрейт/тип: VBR
Цветовое пространство: YUV
Тип развёртки: Progressive
Колориметрия: 4:2:0
Глубина: 8 bits
:
Тип потока: Звук #1
Язык: Russian
Название: Дублированный (R5)
Длительность: 01:35:23.328
Кодек: AC-3
Кодек/описание: Audio Coding 3
Кодек/ID: A_AC3
Частота дискретизации: 48.0 KHz
Каналов: 6 channels
Битрейт: 384 Kbps
Битрейт/тип: Constant
Размер потока: 262 MiB (6%)
Глубина: 16 bits
Метод сжатия: Lossy
:
Тип потока: Звук #2
Язык: Russian
Название: Профессиональный двухголосый
Длительность: 01:35:23.328
Кодек: AC-3
Кодек/описание: Audio Coding 3
Кодек/ID: A_AC3
Частота дискретизации: 48.0 KHz
Каналов: 6 channels
Битрейт: 384 Kbps
Битрейт/тип: Constant
Размер потока: 262 MiB (6%)
Глубина: 16 bits
Метод сжатия: Lossy
:
Тип потока: Звук #3
Язык: English
Длительность: 01:35:23.328
Кодек: AC-3
Кодек/описание: Audio Coding 3
Кодек/ID: A_AC3
Частота дискретизации: 48.0 KHz
Каналов: 6 channels
Битрейт: 448 Kbps
Битрейт/тип: Constant
Размер потока: 306 MiB (7%)
Глубина: 16 bits
Метод сжатия: Lossy
:
Тип потока: Субтитры #1
Язык: Russian
Формат: UTF-8
Формат/подробно: UTF-8 Plain Text
Название: full
:
Тип потока: Субтитры #2
Язык: English
Формат: UTF-8
Формат/подробно: UTF-8 Plain Text
Название: full

pb.wtf



Скачать Шоу начинается через торрент http://pic1.kartinco.top/images/11/69kys.jpg Скачать фильм Шоу начинается через торрент бесплантно в хорошем качестве Описание: Детектив департамента полиции Лос-Анджелеса Митч Престон — человек, не терпящий вздора, а также не отличающийся ... 8.8 10 10
Торрент: Зарегистрирован [2017-02-12 05:37] · скачан: 206 раз
Статус: √ проверено
Размер: 4.32 GB
Как cкачать? Как скачать Шоу начинается через торрент | qTorrent

28-11-2019 20:33  

Отключить всю рекламу на сайте

    Дорогой пользователь! Огромная просьба, поблагодарите релизера, оцените раздачу и оставьте свои комментарий, если Вы скачали Шоу начинается через торрент бесплатно! Внесите свою лепту в развитие PiratBit!
    Комментировать посты могут только пользователи прошедшие не сложную регистрацию
    Показать сообщения:    

    Шоу начинается через торрент
    Скачать бесплатно Шоу начинается
    Шоу начинается скачать торрент
    Шоу начинается смотреть онлайн
    Cкачать фильм Шоу начинается бесплатно
    Шоу начинается скачать торрент в хорошем качестве
    Шоу начинается смотреть онлайн бесплатно в хорошем качестве


    Вы не можете начинать темы
    Вы не можете отвечать на сообщения
    Вы не можете редактировать свои сообщения
    Вы не можете удалять свои сообщения
    Вы не можете голосовать в опросах
    Вы не можете прикреплять файлы к сообщениям
    Вы можете скачивать файлы