Ссылка на приватное зеркало нашего сайта всего за 1$. Внимание количество ограничено!!!

2 сезон

iTunes

1 сезон

1

iTunes

iTunes

iTunes

1 сезон

RePack

30

ИГРА 18+

pack

ВАЖНО

!!Акция!!

Alien_RageХит недели

RePack

MK11
pack

Забери бонус

RePack

jed

!!Акция!!

Alien_Rage

RePack

fifa19

RePack

Assassins Creed: Odyssey

RePack

NEED FOR SPEED™ PAYBACK

4 сезон

9 сезон

Бесстыжие 9 сезон

Все сериалы

все сериалы на PB.wtf

RePack

FAR CRY 5
  

Открытки с края бездны / Postcards from the Edge (Майк Николс) [1990, драма, комедия, BDRip 1080p by msltel] MVO, AVO pb.wtf

Открытки с края бездны через торрент pb.wtf

Размер: 13.98 GB | Добавлен: 3 года 8 мес. назад | Торрент скачан:3 раза
Скачать  

12-02-2017 07:52 Открытки с края бездны Скачать торрент  

Название: Открытки с края бездны
Оригинальное название: Postcards from the Edge
Год выпуска: 1990
Страна: США
Жанр: драма, комедия
Продолжительность: 01:41:40
Перевод: профессиональный многоголосый, авторский

Режиссёр: Майк Николс

В ролях: Мэрил Стрип, Ширли МакЛейн, Дэннис Куэйд, Джин Хэкмен, Ричард Дрейфусс, Роб Райнер, Мэри Уикс, Конрад Бэйн, Аннетт Бенинг, Саймон Кэллоу

Описание: После курса лечения от наркомании известная киноактриса вынуждена жить со своей матерью-алкоголичкой, которая продолжает относиться к дочери как к малому ребёнку. Ситуация усугубляется проблемами в личной жизни, но героиня находит в себе силы воспринимать её с иронией... Сценарий к фильму актриса Кэрри Фишер написала по мотивам собственной, наполовину автобиографической, книги.



Качество: BDRip 1080p
Формат: MKV
Видео: MPEG-4 AVC, 18.3 Mбит/с, 1920x1080, 23,976 кадра/с
Аудио 1: русский, AC3, 192 kbps, 2 ch, 48 kHz [профессиональный многоголосый, Первый канал]
Аудио 2: русский, AC3, 384 kbps, 6 ch, 48 kHz [авторский, Алексей Михалёв]
Аудио 3: английский, DTS, 768 kbps, 2 ch, 48 kHz [оригинал]
Субтитры: английские (для слабослышащих)
Имеются неименованные главы/чаптеры.
Общее
Уникальный идентификатор : 205527353947847562733476370544707559179 (0x9A9F20E7BA477A4A9A1E4633B654DF0B)
Полное имя : D:\Video\Открытки с края бездны.1990.BDRip.1080p by msltel.mkv
Формат : Matroska
Версия формата : Version 4 / Version 2
Размер файла : 14,0 Гбайт
Продолжительность : 1 ч. 41 м.
Общий поток : 19,7 Мбит/сек
Название фильма : Rip by msltel
Дата кодирования : UTC 2017-02-12 03:40:00
Программа кодирования : mkvmerge v8.2.0 ('World of Adventure') 64bit
Библиотека кодирования : libebml v1.3.1 + libmatroska v1.4.2

Видео
Идентификатор : 1
Формат : AVC
Формат/Информация : Advanced Video Codec
Профиль формата : High@L4.1
Параметр CABAC формата : Да
Параметр ReFrames формата : 4 кадра
Идентификатор кодека : V_MPEG4/ISO/AVC
Продолжительность : 1 ч. 41 м.
Битрейт : 18,3 Мбит/сек
Ширина : 1920 пикселей
Высота : 1080 пикселей
Соотношение сторон : 16:9
Режим частоты кадров : Постоянный
Частота кадров : 23,976 (24000/1001) кадра/сек
Цветовое пространство : YUV
Субдискретизация насыщенности : 4:2:0
Битовая глубина : 8 бит
Тип развёртки : Прогрессивная
Бит/(Пиксели*Кадры) : 0.369
Размер потока : 13,0 Гбайт (93%)
Библиотека кодирования : x264 core 146 r2538 121396c
Настройки программы : cabac=1 / ref=4 / deblock=1:-3:-3 / analyse=0x3:0x113 / me=umh / subme=11 / psy=1 / psy_rd=1.00:0.15 / mixed_ref=1 / me_range=32 / chroma_me=1 / trellis=2 / 8x8dct=1 / cqm=0 / deadzone=21,11 / fast_pskip=0 / chroma_qp_offset=-3 / threads=6 / lookahead_threads=1 / sliced_threads=0 / nr=0 / decimate=1 / interlaced=0 / bluray_compat=0 / constrained_intra=0 / bframes=9 / b_pyramid=2 / b_adapt=2 / b_bias=0 / direct=1 / weightb=1 / open_gop=0 / weightp=2 / keyint=230 / keyint_min=23 / scenecut=40 / intra_refresh=0 / rc_lookahead=40 / rc=crf / mbtree=0 / crf=19.6 / qcomp=0.60 / qpmin=0 / qpmax=69 / qpstep=4 / vbv_maxrate=62500 / vbv_bufsize=78125 / crf_max=0.0 / nal_hrd=none / filler=0 / ip_ratio=1.40 / pb_ratio=1.30 / aq=1:1.00
Язык : English
Default : Да
Forced : Нет

Аудио #1
Идентификатор : 2
Формат : AC-3
Формат/Информация : Audio Coding 3
Расширение режима : CM (complete main)
Параметр Endianness формата : Big
Идентификатор кодека : A_AC3
Продолжительность : 1 ч. 41 м.
Вид битрейта : Постоянный
Битрейт : 192 Кбит/сек
Каналы : 2 канала
Расположение каналов : Front: L R
Частота : 48,0 КГц
Частота кадров : 31,250 кадров/сек (1536 spf)
Битовая глубина : 16 бит
Метод сжатия : С потерями
Размер потока : 140 Мбайт (1%)
Заголовок : MVO (Первый канал)
Язык : Russian
Default : Да
Forced : Нет

Аудио #2
Идентификатор : 3
Формат : AC-3
Формат/Информация : Audio Coding 3
Расширение режима : CM (complete main)
Параметр Endianness формата : Big
Идентификатор кодека : A_AC3
Продолжительность : 1 ч. 41 м.
Вид битрейта : Постоянный
Битрейт : 384 Кбит/сек
Каналы : 6 каналов
Расположение каналов : Front: L C R, Side: L R, LFE
Частота : 48,0 КГц
Частота кадров : 31,250 кадров/сек (1536 spf)
Битовая глубина : 16 бит
Метод сжатия : С потерями
Размер потока : 279 Мбайт (2%)
Заголовок : AVO (Алексей Михалёв)
Язык : Russian
Default : Нет
Forced : Нет

Аудио #3
Идентификатор : 4
Формат : DTS
Формат/Информация : Digital Theater Systems
Режим : 16
Параметр Endianness формата : Big
Идентификатор кодека : A_DTS
Продолжительность : 1 ч. 41 м.
Вид битрейта : Постоянный
Битрейт : 768 Кбит/сек
Каналы : 2 канала
Расположение каналов : Front: L R
Частота : 48,0 КГц
Частота кадров : 93,750 кадра/сек (512 spf)
Битовая глубина : 16 бит
Метод сжатия : С потерями
Размер потока : 558 Мбайт (4%)
Заголовок : original
Язык : English
Default : Нет
Forced : Нет

Текст
Идентификатор : 5
Формат : UTF-8
Идентификатор кодека : S_TEXT/UTF8
Идентификатор кодека/Информация : UTF-8 Plain Text
Продолжительность : 1 ч. 41 м.
Битрейт : 84 бит/сек
Count of elements : 1796
Размер потока : 63,1 Кбайт (0%)
Заголовок : английские (для слабослышащих)
Язык : English
Default : Нет
Forced : Нет

Меню
00:00:00.000 : en:00:00:00.000
00:06:02.362 : en:00:06:02.362
00:19:56.696 : en:00:19:56.696
00:38:40.318 : en:00:38:40.318
00:52:02.620 : en:00:52:02.620
00:59:31.568 : en:00:59:31.568
01:08:00.076 : en:01:08:00.076
01:16:59.615 : en:01:16:59.615
01:23:17.493 : en:01:23:17.493
01:31:47.502 : en:01:31:47.502
01:38:39.914 : en:01:38:39.914
pb.wtf



Скачать Открытки с края бездны через торрент http://s009.radikal.ru/i309/1702/bc/7eae12e4e96c.png Скачать фильм Открытки с края бездны через торрент бесплантно в хорошем качестве Описание: После курса лечения от наркомании известная киноактриса вынуждена жить со своей матерью-алкоголичкой, которая продолжает ... 10 10 2
Info! Золотая раздача, скачанное не засчитывается.
Торрент: Зарегистрирован [2017-02-12 07:52] · скачан: 3 раз
Статус: √ проверено
Размер: 13.98 GB
Как cкачать? Как скачать Открытки с края бездны через торрент | qTorrent

% Раздел Тема Автор DL S | L
Фильмы [HD 720p, 1080p] (Хороший звук DUB, MVO) [ 5.16 GB ] Открытки с края бездны / Postcards from the Edge [1990 BDRip 720p by msltel] MVO AVO msltel Скачать
1 | 0

28-11-2019 20:33  

Отключить всю рекламу на сайте

    Дорогой пользователь! Огромная просьба, поблагодарите релизера, оцените раздачу и оставьте свои комментарий, если Вы скачали Открытки с края бездны через торрент бесплатно! Внесите свою лепту в развитие PiratBit!
    Комментировать посты могут только пользователи прошедшие не сложную регистрацию
    Показать сообщения:    

    Открытки с края бездны через торрент
    Скачать бесплатно Открытки с края бездны
    Открытки с края бездны скачать торрент
    Открытки с края бездны смотреть онлайн
    Cкачать фильм Открытки с края бездны бесплатно
    Открытки с края бездны скачать торрент в хорошем качестве
    Открытки с края бездны смотреть онлайн бесплатно в хорошем качестве


    Вы не можете начинать темы
    Вы не можете отвечать на сообщения
    Вы не можете редактировать свои сообщения
    Вы не можете удалять свои сообщения
    Вы не можете голосовать в опросах
    Вы не можете прикреплять файлы к сообщениям
    Вы можете скачивать файлы