новый адрес
Ссылка на приватное зеркало всего за 1$. Внимание количество ограничено!!!

iTunes

1+1

iTunes

мы

iTunes

1

iTunes

Чернобыль

iTunes

Ральф против интернета

Лицензия

ПШазам

Лицензия

Оно 2

Лицензия

30
pack

Вам бонус

ВАЖНО

!!Акция!!

Alien_RageХит недели

RePack

Resident Evil 21

ИГРА 18+

pack

RePack

jed

!!Акция!!

Alien_Rage

RePack

fifa19

RePack

Assassins Creed: Odyssey

RePack

NEED FOR SPEED™ PAYBACK

3 сезон

9 сезон

Бесстыжие 9 сезон

Все сериалы

все сериалы на PB.wtf

RePack

FAR CRY 5
Ребята, катастрофически не хватает 1900р. для оплаты серверов за Октябрь (всвязи с блокировками трафик упал в 3 раза), 1-2р., выручайте.
  

Отарова вдова (Михаил Чиаурели) [1957, СССР, драма, WEB-DLRip от AVP Studio] pb.wtf

Отарова вдова через торрент pb.wtf

Размер: 745 MB | Добавлен: 2 года 9 мес. назад | Торрент скачан:4 раза
Скачать  

12-02-2017 09:24 Отарова вдова Скачать торрент  

Отарова вдова
Страна: СССР
Производство: Грузия-фильм

Жанр: драма
Год выпуска: 1957
Продолжительность: 01:09:19

Перевод: Не требуется
Cубтитры: нет
Оригинальная аудиодорожка: русский

Режиссер: Михаил Чиаурели

В ролях:
Верико Анджапаридзе, Георгий Шенгелая, Борис Андроникашвили, Динара Жоржолиани, Коте (Константин) Даушвили, Ираклий Нижарадзе, Мария (Мэри) Давиташвили, Александр Гомелаури, Александр Загорский, Вахтанг Нинуа, Акакий (Како) Кванталиани, Бадри Кобахидзе, Александр Омиадзе, Михаил Мгеладзе, Ирина Магалашвили...
Полный список актёров

Описание:
По одноименной повести И. Чавчавадзе.
Сын Отаровой вдовы крестьянин Георгий влюбился в княжну Кесо. Чтобы быть ближе к любимой он нанимается батраком в ее поместье. Однако та его даже не замечает, хотя и мечтает «сблизиться» с народом.

Источник: WEB-DL 720p
Качество видео: WEB-DLRip
Формат видео: AVI

Видео: 720x400 (16:9), 29,970 fps, XviD ~ 1299 kbps avg, 0.151 bit/pixel
Аудио: 48 kHz, Dolby Digital AC3 2.0, 192 kbps

Раздача от:
Общее
Полное имя : Otarova.vdova.1957.WEB-DLRip_[New-team]_by_AVP_Studio.avi
Формат : AVI
Формат/Информация : Audio Video Interleave
Размер файла : 745 Мбайт
Продолжительность : 1 ч. 9 м.
Общий поток : 1503 Кбит/сек
Программа кодирования : VirtualDubMod 1.5.10.3 | www.virtualdub-fr.org || (build 2550/release)
Библиотека кодирования : VirtualDubMod build 2550/release

Видео
Идентификатор : 0
Формат : MPEG-4 Visual
Профиль формата : Advanced Simple@L5
Параметр BVOP формата : 1
Параметр QPel формата : Нет
Параметр GMC формата : Без точки перехода
Параметр матрицы формата : Выборочная
Идентификатор кодека : XVID
Идентификатор кодека/Подсказка : XviD
Продолжительность : 1 ч. 9 м.
Битрейт : 1299 Кбит/сек
Ширина : 720 пикселей
Высота : 400 пикселей
Соотношение сторон : 16:9
Частота кадров : 29,970 (30000/1001) кадров/сек
Цветовое пространство : YUV
Субдискретизация насыщенности : 4:2:0
Битовая глубина : 8 бит
Тип развёртки : Прогрессивная
Метод сжатия : С потерями
Бит/(Пиксели*Кадры) : 0.151
Размер потока : 644 Мбайт (86%)
Библиотека кодирования : XviD 73

Аудио
Идентификатор : 1
Формат : AC-3
Формат/Информация : Audio Coding 3
Расширение режима : CM (complete main)
Параметр Endianness формата : Big
Идентификатор кодека : 2000
Продолжительность : 1 ч. 9 м.
Вид битрейта : Постоянный
Битрейт : 192 Кбит/сек
Каналы : 2 канала
Расположение каналов : Front: L R
Частота : 48,0 КГц
Частота кадров : 31,250 кадров/сек (1536 spf)
Битовая глубина : 16 бит
Метод сжатия : С потерями
Размер потока : 95,2 Мбайт (13%)
Выравнивание : Разделение по промежуткам
Продолжительность промежутка : 33 мс. (1,00 видеокадр)
Время предзагрузки промежутка : 500 мс
pb.wtf



Скачать Отарова вдова через торрент http://s06.radikal.ru/i179/1702/73/f378281a6dac.png Скачать фильм Отарова вдова через торрент бесплантно в хорошем качестве Описание:По одноименной повести И. Чавчавадзе.Сын Отаровой вдовы крестьянин Георгий влюбился в княжну Кесо. Чтобы быть ближе к любимой он ... 10 10 1
Info! Золотая раздача, скачанное не засчитывается.
Торрент: Зарегистрирован [2017-02-12 09:24] · скачан: 4 раз
Статус: √ проверено
Размер: 745 MB
Как cкачать? Как скачать Отарова вдова через торрент | qTorrent

% Раздел Тема Автор DL S | L
Кино СССР [ 1.46 GB ] Отарова вдова [1957 СССР WEB-DLRip-AVC от AVP Studio] AVP Studio Скачать
1 | 0
    Дорогой пользователь! Огромная просьба, поблагодарите релизера, оцените раздачу и оставьте свои комментарий, если Вы скачали Отарова вдова через торрент бесплатно! Внесите свою лепту в развитие PiratBit!
    Комментировать посты могут только пользователи прошедшие не сложную регистрацию
    Показать сообщения:    

    Отарова вдова через торрент
    Скачать бесплатно Отарова вдова
    Отарова вдова скачать торрент
    Отарова вдова смотреть онлайн
    Cкачать фильм Отарова вдова бесплатно
    Отарова вдова скачать торрент в хорошем качестве
    Отарова вдова смотреть онлайн бесплатно в хорошем качестве


    Вы не можете начинать темы
    Вы не можете отвечать на сообщения
    Вы не можете редактировать свои сообщения
    Вы не можете удалять свои сообщения
    Вы не можете голосовать в опросах
    Вы не можете прикреплять файлы к сообщениям
    Вы можете скачивать файлы