новый адрес пиратбит piratbit
Мега распродажа FORZA HORIZON 4 ULTIMATE+ВСЕ DLC+ОНЛАЙН всего за 499р. 349 руб. (супер цена). Внимание количество ограничено!!!

iTunes

1+1

iTunes

мы

iTunes

1

iTunes

Чернобыль

iTunes

Ральф против интернета

Лицензия

ПШазам

Лицензия

Игра престолов

Лицензия

30
pack

ВАЖНО

!!Акция!!

Alien_RageХит недели

RePack

Resident Evil 21

ИГРА 18+

pack

RePack

Metro:Exodus

!!Акция!!

Alien_Rage

RePack

fifa19

RePack

Assassins Creed: Odyssey

RePack

NEED FOR SPEED™ PAYBACK

3 сезон

9 сезон

Бесстыжие 9 сезон

Все сериалы

все сериалы на PB.wtf

RePack

FAR CRY 5
Ребята, катастрофически не хватает 1900р. для оплаты серверов за Октябрь (всвязи с блокировками трафик упал в 3 раза), 1-2р., выручайте.
  

Конец Чирвы-Козыря (Василий Лапокныш) [1957, СССР, драма, VHSRip от AVP Studio] pb.wtf

Конец Чирвы-Козыря через торрент pb.wtf

Размер: 1.09 GB | Добавлен: 2 года 9 мес. назад | Торрент скачан:8 раз
Скачать  

12-02-2017 09:27 Конец Чирвы-Козыря Скачать торрент  

Конец Чирвы-Козыря
Страна: СССР
Производство: К/ст им. Довженко

Жанр: драма
Год выпуска: 1957
Продолжительность: 01:25:01

Перевод: Не требуется
Cубтитры: нет
Оригинальная аудиодорожка: русский

Режиссер: Василий Лапокныш

В ролях:
Павел Усовниченко, Владимир Аркушенко, Александр Хвыля, Дмитрий Милютенко, Сергей Смеян, Надежда Доценко, Иван Переверзев, Ада Роговцева, Борис Мартынов (II), Тамара Носова, Константин Артеменко, Иван Костюченко, Николай Дупак, Николай Панасьев, Владимир Данилин...
Полный список актёров

Описание:
По мотивам пьесы Ивана Микитенко «Диктатура».
Действие фильма происходит на Украине летом 1929 года. Чтобы не сдавать хлеб государству по твёрдым ценам, кулак Чирва (Александр Хвыля) зарывает 600 пудов зерна в землю. В село Горбани для организации хлебозаготовок прибывает рабочий-коммунист Григорий Дударь (Павел Усовниченко). В борьбе с кулаками ему удаётся привлечь на свою сторону бедных селян.

Источник: VHS
Качество видео: VHSRip
Формат видео: AVI

Видео: 704x528 (4:3), 25,000 кадров/сек, XviD ~ 1630 kbps avg, 0.175 bit/pixel
Аудио: 48 kHz, Dolby Digital AC3 2.0, 192 kbps

Раздача от:
Общее
Полное имя : Konec.Chirvy-Kozyrya.1957.VHSRip_[New-team]_by_AVP_Studio.avi
Формат : AVI
Формат/Информация : Audio Video Interleave
Размер файла : 1,09 Гбайт
Продолжительность : 1 ч. 25 м.
Общий поток : 1832 Кбит/сек
Программа кодирования : VirtualDubMod 1.5.10.3 | www.virtualdub-fr.org || (build 2550/release)
Библиотека кодирования : VirtualDubMod build 2550/release

Видео
Идентификатор : 0
Формат : MPEG-4 Visual
Профиль формата : Advanced Simple@L5
Параметр BVOP формата : 1
Параметр QPel формата : Нет
Параметр GMC формата : Без точки перехода
Параметр матрицы формата : Выборочная
Идентификатор кодека : XVID
Идентификатор кодека/Подсказка : XviD
Продолжительность : 1 ч. 25 м.
Битрейт : 1630 Кбит/сек
Ширина : 704 пикселя
Высота : 528 пикселей
Соотношение сторон : 4:3
Частота кадров : 25,000 кадров/сек
Цветовое пространство : YUV
Субдискретизация насыщенности : 4:2:0
Битовая глубина : 8 бит
Тип развёртки : Прогрессивная
Метод сжатия : С потерями
Бит/(Пиксели*Кадры) : 0.175
Размер потока : 991 Мбайт (89%)
Библиотека кодирования : XviD 73

Аудио
Идентификатор : 1
Формат : AC-3
Формат/Информация : Audio Coding 3
Расширение режима : CM (complete main)
Параметр Endianness формата : Big
Идентификатор кодека : 2000
Продолжительность : 1 ч. 25 м.
Вид битрейта : Постоянный
Битрейт : 192 Кбит/сек
Каналы : 2 канала
Расположение каналов : Front: L R
Частота : 48,0 КГц
Частота кадров : 31,250 кадров/сек (1536 spf)
Битовая глубина : 16 бит
Метод сжатия : С потерями
Размер потока : 117 Мбайт (10%)
Выравнивание : Разделение по промежуткам
Продолжительность промежутка : 40 мс. (1,00 видеокадр)
Время предзагрузки промежутка : 500 мс
pb.wtf



Скачать Конец Чирвы-Козыря через торрент http://i023.radikal.ru/1702/c9/85d33e6f621c.png Скачать фильм Конец Чирвы-Козыря через торрент бесплантно в хорошем качестве Описание:По мотивам пьесы Ивана Микитенко «Диктатура».Действие фильма происходит на Украине летом 1929 года. Чтобы не сдавать хлеб ... 5 10 1
Info! Золотая раздача, скачанное не засчитывается.
Торрент: Зарегистрирован [2017-02-12 09:27] · скачан: 8 раз
Статус: √ проверено
Размер: 1.09 GB
Как cкачать? Как скачать Конец Чирвы-Козыря через торрент | qTorrent

% Раздел Тема Автор DL S | L
Кино СССР [ 1.09 GB ] Конец Чирвы-Козыря [1957 СССР VHSRip-AVC от AVP Studio] AVP Studio Скачать
1 | 0


>> Регистрируемся здесь <<






Отзывы и комментарии о схеме читаем и пишем здесь: ---> Отзывы и комментарии о схеме

Новые благодарочки в телеграм довольных пользователей:
скриншот   скриншот   скриншот   скриншот   скриншот
    Дорогой пользователь! Огромная просьба, поблагодарите релизера, оцените раздачу и оставьте свои комментарий, если Вы скачали Конец Чирвы-Козыря через торрент бесплатно! Внесите свою лепту в развитие PiratBit!
    Комментировать посты могут только пользователи прошедшие не сложную регистрацию
    Показать сообщения:    

    Конец Чирвы-Козыря через торрент
    Скачать бесплатно Конец Чирвы-Козыря
    Конец Чирвы-Козыря скачать торрент
    Конец Чирвы-Козыря смотреть онлайн
    Cкачать фильм Конец Чирвы-Козыря бесплатно
    Конец Чирвы-Козыря скачать торрент в хорошем качестве
    Конец Чирвы-Козыря смотреть онлайн бесплатно в хорошем качестве


    Вы не можете начинать темы
    Вы не можете отвечать на сообщения
    Вы не можете редактировать свои сообщения
    Вы не можете удалять свои сообщения
    Вы не можете голосовать в опросах
    Вы не можете прикреплять файлы к сообщениям
    Вы можете скачивать файлы