Ссылка на приватное зеркало нашего сайта всего за 1$. Внимание количество ограничено!!!

2 сезон

iTunes

1 сезон

1

2 сезон

2 сезон

iTunes

1 сезон

RePack

30

Ultimate

ВАЖНО

ИГРА 18+

pack

RePack

MK11
pack

Забери бонус

RePack

jed

!!Акция!!

Alien_Rage

RePack

fifa19

RePack

Assassins Creed: Odyssey

RePack

NEED FOR SPEED™ PAYBACK

4 сезон

9 сезон

Бесстыжие 9 сезон

Все сериалы

все сериалы на PB.wtf

RePack

FAR CRY 5
  

Табу / Taboo / Сезон 1 / Серии 1-8 из 8 (Андерс Энгстрем, Кристоффер Нюхольм) [2017 , драма, WEB-DLRip-AVC] Профессиональный многоголосый [NewStudio] от ExKinoRay pb.wtf

Табу через торрент pb.wtf

Размер: 7.46 GB | Добавлен: 3 года 8 мес. назад | Торрент скачан:779 раз
Скачать  

12-02-2017 19:09 Табу Скачать торрент  

═╬ ТАБУ ╬═

Год выпуска: 2017

Страна: Великобритания
Жанр: драма

Продолжительность: 00:55:01
Перевод: Профессиональный многоголосый [NewStudio]
Субтитры: Английские
Режиссер: Андерс Энгстрем, Кристоффер Нюхольм
В ролях:

Том Харди (James Keziah Delaney), Дэвид Хейман (Brace), Джонатан Прайс (Sir Stuart Strange), Уна Чаплин (Zilpha Geary), Ричард Диксон (John Pettifer), Лео Билл (Benjamin Wilton), Эдвард Хогг (Godfrey), Ruby-May Martinwood (Winter), Джесси Бакли (Lorna Bow), Джейсон Уоткинс (Solomon Coop), Стивен Грэм (Atticus), Франка Потенте (Helga)
Описание:
Искатель приключений Джеймс Кезиах Делейни строит свою собственную корабельную империю в начале 1800-х годов.
Мировая премьера: 7 января 2017
rating

Rip by
Качество: WEB-DLRip-AVC
Формат: MKV
Видео: AVC, 1024x576 (16:9), 1580 kbps, 25 fps, 0,107 bpp
Аудио №1: русский / AC3 / 5.1 / 48 kHz / 384 kbps /
Аудио №2: английский / AC3 / 5.1 / 48 kHz / 384 kbps /
General
Unique ID : 224772682117049600174486076089163536015 (0xA919A4D7BDB00EC39FCDB9069A5F568F)
Complete name : D:\Taboo.S01.2017.NewStudio.AVC.ExKinoRay\Taboo.s01e01.2017.NewStudio.AVC.ExKinoRay.mkv
Format : Matroska
Format version : Version 2
File size : 924 MiB
Duration : 55 min 4 s
Overall bit rate : 2 345 kb/s
Movie name : Taboo s01e01 2017 from ExKinoRay
Encoded date : UTC 2017-02-12 15:58:16
Writing application : mkvmerge v7.6.0 ('Garden of Dreams') 32bit built on Feb 11 2015 00:18:47
Writing library : libebml v1.3.1 + libmatroska v1.4.2

Video
ID : 1
Format : AVC
Format/Info : Advanced Video Codec
Format profile : High@L4.1
Format settings, CABAC : Yes
Format settings, ReFrames : 12 frames
Codec ID : V_MPEG4/ISO/AVC
Duration : 55 min 4 s
Bit rate : 1 575 kb/s
Width : 1 024 pixels
Height : 576 pixels
Display aspect ratio : 16:9
Frame rate mode : Constant
Frame rate : 25.000 FPS
Color space : YUV
Chroma subsampling : 4:2:0
Bit depth : 8 bits
Scan type : Progressive
Bits/(Pixel*Frame) : 0.107
Stream size : 603 MiB (65%)
Title : Enigma
Writing library : x264 core 144 r2525 40bb568
Encoding settings : cabac=1 / ref=12 / deblock=1:-2:-2 / analyse=0x3:0x113 / me=umh / subme=10 / psy=1 / psy_rd=1.00:0.05 / mixed_ref=1 / me_range=32 / chroma_me=1 / trellis=2 / 8x8dct=1 / cqm=0 / deadzone=21,11 / fast_pskip=1 / chroma_qp_offset=-3 / threads=12 / lookahead_threads=3 / sliced_threads=0 / nr=0 / decimate=1 / interlaced=0 / bluray_compat=0 / constrained_intra=0 / bframes=10 / b_pyramid=2 / b_adapt=2 / b_bias=0 / direct=3 / weightb=1 / open_gop=0 / weightp=2 / keyint=250 / keyint_min=25 / scenecut=40 / intra_refresh=0 / rc_lookahead=40 / rc=2pass / mbtree=0 / bitrate=1575 / ratetol=1.0 / qcomp=0.60 / qpmin=0 / qpmax=51 / qpstep=4 / cplxblur=20.0 / qblur=0.5 / vbv_maxrate=50000 / vbv_bufsize=62500 / nal_hrd=none / filler=0 / ip_ratio=1.40 / pb_ratio=1.30 / aq=1:1.00
Language : English
Default : Yes
Forced : No
Color range : Limited
Color primaries : BT.709
Transfer characteristics : BT.709
Matrix coefficients : BT.709

Audio #1
ID : 2
Format : AC-3
Format/Info : Audio Coding 3
Mode extension : CM (complete main)
Format settings, Endianness : Big
Codec ID : A_AC3
Duration : 55 min 4 s
Bit rate mode : Constant
Bit rate : 384 kb/s
Channel(s) : 6 channels
Channel positions : Front: L C R, Side: L R, LFE
Sampling rate : 48.0 kHz
Frame rate : 31.250 FPS (1536 spf)
Bit depth : 16 bits
Compression mode : Lossy
Stream size : 151 MiB (16%)
Title : NewStudio
Language : Russian
Default : Yes
Forced : No

Audio #2
ID : 3
Format : AC-3
Format/Info : Audio Coding 3
Mode extension : CM (complete main)
Format settings, Endianness : Big
Codec ID : A_AC3
Duration : 55 min 4 s
Bit rate mode : Constant
Bit rate : 384 kb/s
Channel(s) : 6 channels
Channel positions : Front: L C R, Side: L R, LFE
Sampling rate : 48.0 kHz
Frame rate : 31.250 FPS (1536 spf)
Bit depth : 16 bits
Compression mode : Lossy
Stream size : 151 MiB (16%)
Language : English
Default : No
Forced : No

Text
ID : 4
Format : UTF-8
Codec ID : S_TEXT/UTF8
Codec ID/Info : UTF-8 Plain Text
Language : English
Default : No
Forced : No
  • Остановить скачивание
  • Удалить старый торрент у себя из клиента (старые серии удалять не надо)
  • Скачать новый торрент и запустить его у себя в клиенте вместо старого, при этом указать клиенту путь в старую папку куда и должно происходить скачивание новых серий.

    Ваш клиент при этом должен произвести хеширование (проверку) старой папки (если не производит сам - помогите ему сделать это), и будет докачивать только те серии которых у вас ещё нет. Старые серии при этом не удаляются, а продолжают раздаваться!

    Eсли вы уже удалили старые серии, то предотвратить повторную закачку старых серий можно, отжав галочку в соответсвующих местах при запуске нового торрента. По возможности, желательно не удалять старые серии как можно дольше чтобы релизёр не столько продолжал раздавать старые серии, а смог сконцентрироваться на новых.
  • pb.wtf



    Скачать Табу через торрент http://i6.imageban.ru/out/2017/02/12/72b948a8f35a29b0f439c45929d1c702.jpg Скачать фильм Табу через торрент бесплантно в хорошем качестве Описание: Искатель приключений Джеймс Кезиах Делейни строит свою собственную корабельную империю в начале 1800-х годов.Мировая премьера: 7 ... 9.7 10 29
    × Info от релизера! Добавлена 8 серия. Сезон полностью
    Info! Золотая раздача, скачанное не засчитывается.
    Торрент: Зарегистрирован [2017-03-07 19:04] · скачан: 779 раз
    Статус: √ проверено
    Размер: 7.46 GB
    Как cкачать? Как скачать Табу через торрент | qTorrent

    % Раздел Тема Автор DL S | L
    Зарубежные сериалы [ 7.6 GB ] Табу / Taboo / Сезон 1 / Серии 1-8 из 8 [2017 HDTVRip-AVC] многоголосый [LostFilm] От ExKinoRay Enigma2010 Скачать
    2 | 0


    Последний раз редактировалось: Enigma2010 (2017-03-07 19:06), всего редактировалось 8 раз(а)

    28-11-2019 20:33  

    Отключить всю рекламу на сайте

    23-02-2017 01:52 Табу Скачать торрент  

    Судя по оценкам "Кинопоиска и IMDB" сериал стоит того чтобы его посмотрели!pb.wtf



    15-04-2017 17:30 Табу Скачать торрент  

    Ахуенный сериал,качать всемpb.wtf



    07-07-2017 07:00 Табу Скачать торрент  

    Мне тоже понравился сериал, теперь в ожидании второго сезона... Надеюсь будет не хуже.pb.wtf



    24-08-2017 10:09 Табу Скачать торрент  

    скорее бы продолжениеpb.wtf



    18-02-2018 17:49 Табу Скачать торрент  

    Ничего а*уенного. Среднячок, на любителя Харди.pb.wtf



    12-12-2018 15:50 Табу Скачать торрент  

    lublutorrent писал(а):

    Ничего а*уенного. Среднячок, на любителя Харди.

    Ну вот мне просто интересно,что если среднячок, то что по твоему *уенный сериал,где уровень? По мне так шикарно снятое кино,спасибо за раздачу.pb.wtf



    17-12-2018 10:09 Табу Скачать торрент  

    Васярам писал(а):

    lublutorrent писал(а):

    Ничего а*уенного. Среднячок, на любителя Харди.

    Ну вот мне просто интересно,что если среднячок, то что по твоему *уенный сериал,где уровень? По мне так шикарно снятое кино,спасибо за раздачу.

    Может сериал и снят шикарно, не спорю, но сюжет вообще не цепляет, о чем вообще он? Можно было любого другого туда запихнуть актера и ничего бы не изменилось. Весь сезон бродит туда сюда, и каждую серию ждешь, что вот сейчас что-то адовое начнется (мистическое или потрошильня) и ничего не происходит. Это мое мнение, никому не навязываю. Но до выхода его так разрекламировали, что я его реально ждал.
    Сериалы, которые мне понравились:
    - Нарко
    - Родина
    - Экспансия
    - Готэм
    - Настоящий детектив
    - Викинги
    - Бесстыдники
    - Мир дикого запада
    Что сразу на ум пришло. Сорри если задел pb.wtf



      Дорогой пользователь! Огромная просьба, поблагодарите релизера, оцените раздачу и оставьте свои комментарий, если Вы скачали Табу через торрент бесплатно! Внесите свою лепту в развитие PiratBit!
      Комментировать посты могут только пользователи прошедшие не сложную регистрацию
      Показать сообщения:    

      Табу через торрент
      Скачать бесплатно Табу
      Табу скачать торрент
      Табу смотреть онлайн
      Cкачать фильм Табу бесплатно
      Табу скачать торрент в хорошем качестве
      Табу смотреть онлайн бесплатно в хорошем качестве


      Вы не можете начинать темы
      Вы не можете отвечать на сообщения
      Вы не можете редактировать свои сообщения
      Вы не можете удалять свои сообщения
      Вы не можете голосовать в опросах
      Вы не можете прикреплять файлы к сообщениям
      Вы можете скачивать файлы