MEGA SALE -50% FORZA HORIZON 4 ULTIMATE+ВСЕ DLC+ОНЛАЙН всего за 599р. 299 руб. (супер цена). Внимание количество ограничено!!!

iTunes

1+1

iTunes

мы

iTunes

1

iTunes

Чернобыль

iTunes

Ральф против интернета

Лицензия

ПШазам

Лицензия

Игра престолов

Лицензия

30
pack

ВАЖНО

!!Акция!!

Alien_RageХит недели

RePack

Resident Evil 21

ИГРА 18+

pack

RePack

Metro:Exodus

!!Акция!!

Alien_Rage

RePack

fifa19

RePack

Assassins Creed: Odyssey

RePack

NEED FOR SPEED™ PAYBACK

3 сезон

9 сезон

Бесстыжие 9 сезон

Все сериалы

все сериалы на PB.wtf

RePack

FAR CRY 5
Ребята, катастрофически не хватает 7730р. для оплаты серверов за АВГУСТ (всвязи с блокировками трафик упал в 3 раза), 1-2р., выручайте.
  

Ходячие мертвецы / The Walking Dead / Сезон: 7 / Серия: 1-12 из 16 (Эрнест Р. Дикерсон) [2016-2017, ужасы, триллер, драма, HDTVRip] [MVO] (ColdFilm) pb.wtf

Ходячие мертвецы через торрент pb.wtf

Размер: 6.64 GB | Добавлен: 2 года 6 мес. назад | Торрент скачан:32 раза
Скачать  

13-02-2017 10:43 Ходячие мертвецы Скачать торрент  


Ходячие мертвецы | The Walking Dead

• Год выпуска: 2016
• Страна: США
• Жанр: Ужасы, триллер, драма
• Продолжительность: ~ 00:43:00
• Перевод: Любительский (многоголосый закадровый) | (ColdFilm)

• Режиссёр: Эрнест Р. Дикерсон, Грег Никотеро, Гай Ферленд

• В ролях: Эндрю Линкольн, Скотт Уилсон, Данай Джекесай Гурира, Дэвид Моррисси, Стивен Юн, Лорен Коэн, Чендлер Риггз, Норман Ридус, Мелисса Сюзанн МакБрайд, Эмили Кинни, Чад Коулмэн, Сонеква Мартин

• Описание: Сериал рассказывает историю жизни семьи шерифа после того, как «зомби» — эпидемия апокалиптических масштабов захлестнула земной шар. Шериф Рик Граймс путешествует со своей семьей и небольшой группой выживших в поисках безопасного места для жизни. Но постоянный страх смерти каждый день приносит тяжелые потери, заставляя героев почувствовать глубины человеческой жестокости.


• Качество: HDTVRip
• Формат: AVI
• Видео: XviD, 720x400 (16:9), 25.000 fps, ~1500 kbps
• Аудио: AC3, 48 kHz, 2 ch, 192 kbps, CBR
• Субтитры: отсутствуют
General
Complete name : E:\Ходячие мертвецы (Season 07) ColdFIlm\The.Walking.Dead.S07E09.HDTVRip.ColdFilm.avi
Format : AVI
Format/Info : Audio Video Interleave
File size : 631 MiB
Duration : 51mn 55s
Overall bit rate : 1 699 Kbps
Writing application : VirtualDubMod 1.5.10.2 (build 2540/release)
Writing library : VirtualDubMod build 2540/release

Video
ID : 0
Format : xvid
Codec ID : xvid
Duration : 51mn 55s
Bit rate : 1 431 Kbps
Width : 720 pixels
Height : 400 pixels
Display aspect ratio : 16:9
Frame rate : 25.000 fps
Bits/(Pixel*Frame) : 0.199
Stream size : 532 MiB (84%)

Audio
ID : 1
Format : AC-3
Format/Info : Audio Coding 3
Mode extension : CM (complete main)
Format settings, Endianness : Big
Codec ID : 2000
Duration : 51mn 55s
Bit rate mode : Constant
Bit rate : 192 Kbps
Channel(s) : 2 channels
Channel positions : Front: L R
Sampling rate : 48.0 KHz
Compression mode : Lossy
Stream size : 71.3 MiB (11%)
Alignment : Split accross interleaves
Когда раздача ведётся путём добавления новых серий, при каждом добавлении создётся новый торрент. Чтобы начать докачку новой серии, пользователям необходимо сделать следующее:
(1) остановить скачивание,
(2) удалить старый торрент у себя из клиента (старые серии удалять не надо),
(3) скачать новый торрент и запустить его у себя в клиенте вместо старого, при этом указать клиенту путь в старую папку, куда и должно происходить скачивание новых серий.
Ваш клиент при этом должен произвести хеширование (проверку) старой папки (если не производит сам - помогите ему сделать это), и будет докачивать только те серии, которых у вас ещё нет. Старые серии при этом не удаляются, а продолжают раздаваться!
Eсли вы уже удалили старые серии, то предотвратить повторную закачку старых серий можно, отжав галочку в соответсвующих местах при запуске нового торрента. По возможности, желательно не удалять старые серии как можно дольше, чтобы релизёр не столько продолжал раздавать старые серии, а смог сконцентрироваться на новых.
pb.wtf



Скачать Ходячие мертвецы через торрент http://s010.youpic.su/pictures/1478473200/bd8d0bff73cc142d360097a38d7144dd.png Скачать фильм Ходячие мертвецы через торрент бесплантно в хорошем качестве Описание: Сериал рассказывает историю жизни семьи шерифа после того, как «зомби» — эпидемия апокалиптических масштабов захлестнула земной ... 9.2 10 26
Торрент: Зарегистрирован [2017-03-06 08:22] · скачан: 32 раз
Статус: √ проверено
Размер: 6.64 GB
Как cкачать? Как скачать Ходячие мертвецы через торрент | qTorrent



Последний раз редактировалось: killermax2013 (2017-03-06 08:22), всего редактировалось 2 раз(а)


>> Регистрируемся здесь <<






Отзывы и комментарии о схеме читаем и пишем здесь: ---> Отзывы и комментарии о схеме

Новые благодарочки в телеграм довольных пользователей:
скриншот   скриншот   скриншот   скриншот   скриншот

13-02-2017 11:26 Ходячие мертвецы Скачать торрент  

Ну с возвращением!pb.wtf



13-02-2017 11:48 Ходячие мертвецы Скачать торрент  

оо спасибо а то уже заждался))pb.wtf



13-02-2017 12:20 Ходячие мертвецы Скачать торрент  

Спасибо конечно ) но подожду fox или lostlifm )pb.wtf



13-02-2017 12:35 Ходячие мертвецы Скачать торрент  

MoskowRus писал(а):

Спасибо конечно ) но подожду fox или lostlifm )

от фоксов ночью а от лостов неизвестноpb.wtf



13-02-2017 14:14 Ходячие мертвецы Скачать торрент  

DELpb.wtf



  Ссылки на сторонние ресурсы запрещены., выдал Ворон

13-02-2017 14:16 Ходячие мертвецы Скачать торрент  

У lostlifm на сайте 14.02 стоитpb.wtf



13-02-2017 14:34 Ходячие мертвецы Скачать торрент  

Какая серия вышла? Не 9 же сразу...pb.wtf



13-02-2017 18:21 Ходячие мертвецы Скачать торрент  

Byharin07, Все серии пронумерованы.pb.wtf



27-02-2017 10:59 Ходячие мертвецы Скачать торрент  

+11pb.wtf



06-03-2017 08:23 Ходячие мертвецы Скачать торрент  

+12pb.wtf



    Дорогой пользователь! Огромная просьба, поблагодарите релизера, оцените раздачу и оставьте свои комментарий, если Вы скачали Ходячие мертвецы через торрент бесплатно! Внесите свою лепту в развитие PiratBit!
    Комментировать посты могут только пользователи прошедшие не сложную регистрацию
    Показать сообщения:    

    Ходячие мертвецы через торрент
    Скачать бесплатно Ходячие мертвецы
    Ходячие мертвецы скачать торрент
    Ходячие мертвецы смотреть онлайн
    Cкачать фильм Ходячие мертвецы бесплатно
    Ходячие мертвецы скачать торрент в хорошем качестве
    Ходячие мертвецы смотреть онлайн бесплатно в хорошем качестве


    Вы не можете начинать темы
    Вы не можете отвечать на сообщения
    Вы не можете редактировать свои сообщения
    Вы не можете удалять свои сообщения
    Вы не можете голосовать в опросах
    Вы не можете прикреплять файлы к сообщениям
    Вы можете скачивать файлы