новый адрес
Ссылка на приватное зеркало всего за 1$. Внимание количество ограничено!!!

iTunes

1+1

iTunes

мы

WEB-DL

1

iTunes

Чернобыль

iTunes

Ральф против интернета

Лицензия

ПШазам

Лицензия

Оно 2

Лицензия

30
pack

Вам бонус

ВАЖНО

!!Акция!!

Alien_RageХит недели

RePack

Resident Evil 21

ИГРА 18+

pack

RePack

jed

!!Акция!!

Alien_Rage

RePack

fifa19

RePack

Assassins Creed: Odyssey

RePack

NEED FOR SPEED™ PAYBACK

3 сезон

9 сезон

Бесстыжие 9 сезон

Все сериалы

все сериалы на PB.wtf

RePack

FAR CRY 5
Ребята, катастрофически не хватает 1900р. для оплаты серверов за Октябрь (всвязи с блокировками трафик упал в 3 раза), 1-2р., выручайте.
  

Ласточка (Григорий Липшиц) [1957, СССР, приключения, история, VHSRip от AVP Studio] pb.wtf

Ласточка через торрент pb.wtf

Размер: 1.09 GB | Добавлен: 2 года 9 мес. назад | Торрент скачан:6 раз
Скачать  

13-02-2017 13:53 Ласточка Скачать торрент  

Ласточка
Страна: СССР
Производство: К/ст им. Довженко

Жанр: приключения, история
Год выпуска: 1957
Продолжительность: 01:15:26

Перевод: Не требуется
Cубтитры: нет
Оригинальная аудиодорожка: русский

Режиссер: Григорий Липшиц

В ролях:
Тамара Алёшина, Валентин Черняк, Владимир Дружников, Владимир Канделаки, Всеволод Санаев, Михаил Глузский, Вячеслав Воронин, Валентин Дуклер, Степан Шкурат, Владимир Рудин, Борис Карлаш-Вербицкий, Александр Короткевич, Галина Ляпина...
Полный список актёров

Описание:
Об одном героическом эпизоде из деятельности подпольной большевистской организации в 1912 году.
В севастопольскую организацию приезжает бежавшая из ссылки Вера (Тамара Алёшина), опытный конспиратор, с партийным заданием добыть оружие. Подпольная группа "Ласточка", с которой она связывается, вступает в опасное единоборство с опытным опасным противником, сотрудником охранки Ярновским (Владимир Дружников), и несмотря на трудности и множество препятствий, выполняет задание партии.

Источник: VHS
Качество видео: VHSRip
Формат видео: AVI

Видео: 704x528 (4:3), 25,000 кадров/сек, XviD ~ 1863 kbps avg, 0.201 bit/pixel
Аудио: 48 kHz, Dolby Digital AC3 2.0, 192 kbps

Раздача от:
Общее
Полное имя : Lastochka.1957.VHSRip_[New-team]_by_AVP_Studio.avi
Формат : AVI
Формат/Информация : Audio Video Interleave
Размер файла : 1,09 Гбайт
Продолжительность : 1 ч. 15 м.
Общий поток : 2065 Кбит/сек
Программа кодирования : VirtualDubMod 1.5.10.3 | www.virtualdub-fr.org || (build 2550/release)
Библиотека кодирования : VirtualDubMod build 2550/release

Видео
Идентификатор : 0
Формат : MPEG-4 Visual
Профиль формата : Advanced Simple@L5
Параметр BVOP формата : 1
Параметр QPel формата : Нет
Параметр GMC формата : Без точки перехода
Параметр матрицы формата : Выборочная
Идентификатор кодека : XVID
Идентификатор кодека/Подсказка : XviD
Продолжительность : 1 ч. 15 м.
Битрейт : 1863 Кбит/сек
Ширина : 704 пикселя
Высота : 528 пикселей
Соотношение сторон : 4:3
Частота кадров : 25,000 кадров/сек
Цветовое пространство : YUV
Субдискретизация насыщенности : 4:2:0
Битовая глубина : 8 бит
Тип развёртки : Прогрессивная
Метод сжатия : С потерями
Бит/(Пиксели*Кадры) : 0.201
Размер потока : 1005 Мбайт (90%)
Библиотека кодирования : XviD 73

Аудио
Идентификатор : 1
Формат : AC-3
Формат/Информация : Audio Coding 3
Расширение режима : CM (complete main)
Параметр Endianness формата : Big
Идентификатор кодека : 2000
Продолжительность : 1 ч. 15 м.
Вид битрейта : Постоянный
Битрейт : 192 Кбит/сек
Каналы : 2 канала
Расположение каналов : Front: L R
Частота : 48,0 КГц
Частота кадров : 31,250 кадров/сек (1536 spf)
Битовая глубина : 16 бит
Метод сжатия : С потерями
Размер потока : 104 Мбайт (9%)
Выравнивание : Разделение по промежуткам
Продолжительность промежутка : 40 мс. (1,00 видеокадр)
Время предзагрузки промежутка : 500 мс
pb.wtf



Скачать Ласточка через торрент http://s018.radikal.ru/i518/1702/5e/755f6b81ead7.png Скачать фильм Ласточка через торрент бесплантно в хорошем качестве Описание:Об одном героическом эпизоде из деятельности подпольной большевистской организации в 1912 году.В севастопольскую организацию ... 5 10 1
Info! Золотая раздача, скачанное не засчитывается.
Торрент: Зарегистрирован [2017-02-13 13:53] · скачан: 6 раз
Статус: √ проверено
Размер: 1.09 GB
Как cкачать? Как скачать Ласточка через торрент | qTorrent

% Раздел Тема Автор DL S | L
Фильмы с украинским озвучиванием [ 8.84 GB ] Перші ластівки / Первые ласточки / Сезон: 1 / Серии: 1-8 из 8 [2019 Психологический WEBRip 720p] DEVI Скачать
24 | 24
Наши новые фильмы 2018-2019 [ 1.46 GB ] Мертвые ласточки [2019 HDRip] bober100 Скачать
21 | 0
Фантастика [ 853 MB ] Анджей Сапковский - Ведьмак 6. Башня Ласточки [Кирилл Головин Михаил Поздняков 2018 128 kbps MP3] bober100 Скачать
1 | 0
Наши сериалы [ 11.2 GB ] Ночные ласточки / Сезон: 1 / Серии: 1-8 из 8 [2013 WEB-DL 1080p] bober100 Скачать
1 | 0
Наши сериалы [ 4.66 GB ] Ночные ласточки / Сезон: 1 / Серии: 1-8 из 8 [2013 WEB-DL 720p] bober100 Скачать
1 | 0
Наши сериалы [ 23.04 GB ] Ночные ласточки / Сезон: 1 / Серии: 1-8 из 8 [2013 HDTV 1080i] bober100 Скачать
1 | 0
Наши сериалы [ 9.08 GB ] Ночные ласточки / Сезон: 1 / Серии: 1-8 из 8 [2013 HDTVRip 720p] bober100 Скачать
1 | 0

28-11-2019 20:33  

Отключить всю рекламу на сайте

    Дорогой пользователь! Огромная просьба, поблагодарите релизера, оцените раздачу и оставьте свои комментарий, если Вы скачали Ласточка через торрент бесплатно! Внесите свою лепту в развитие PiratBit!
    Комментировать посты могут только пользователи прошедшие не сложную регистрацию
    Показать сообщения:    

    Ласточка через торрент
    Скачать бесплатно Ласточка
    Ласточка скачать торрент
    Ласточка смотреть онлайн
    Cкачать фильм Ласточка бесплатно
    Ласточка скачать торрент в хорошем качестве
    Ласточка смотреть онлайн бесплатно в хорошем качестве


    Вы не можете начинать темы
    Вы не можете отвечать на сообщения
    Вы не можете редактировать свои сообщения
    Вы не можете удалять свои сообщения
    Вы не можете голосовать в опросах
    Вы не можете прикреплять файлы к сообщениям
    Вы можете скачивать файлы