Death Stranding+DLC+АВТОАКТИВАЦИЯ

iTunes

iTunes

iTunes

1

iTunes

iTunes

iTunes

iTunes

iTunes

30
pack

$ от Little Big

ВАЖНО

!!Акция!!

Alien_RageХит недели

RePack

Resident Evil 21

ИГРА 18+

pack

RePack

jed

!!Акция!!

Alien_Rage

RePack

fifa19

RePack

Assassins Creed: Odyssey

RePack

NEED FOR SPEED™ PAYBACK

4 сезон

9 сезон

Бесстыжие 9 сезон

Все сериалы

все сериалы на PB.wtf

RePack

FAR CRY 5
  

Доктор Стрэндж / Doctor Strange (Скотт Дерриксон) [2016, фантастика, фэнтези, боевик, приключения, WEB-DL 720p] DUB [Лицензия / iTunes] pb.wtf

Доктор Стрэндж через торрент pb.wtf

Размер: 3.86 GB | Добавлен: 3 года 5 мес. назад | Торрент скачан:468 раз
Скачать  

13-02-2017 20:52 Доктор Стрэндж Скачать торрент  

Доктор Стрэндж / Doctor Strange
Год выпуска: 2016
Страна: США
Жанр: фантастика, фэнтези, боевик, приключения
Продолжительность: 01:55:15
Перевод: Дубляж - [Лицензия / iTunes]
Субтитры: Русские, английские

Режиссер: Скотт Дерриксон

rating

В ролях:

Бенедикт Камбербэтч, Тильда Суинтон, Мадс Миккельсен, Чиветель Эджиофор, Рэйчел МакАдамс, Бенедикт Вонг, Майкл Стулбарг, Бенджамин Брэтт, Скотт Эдкинс, Зара Питиан

Описание:

Страшная автокатастрофа поставила крест на карьере успешного нейрохирурга Доктора Стрэнджа. Отчаявшись, он отправляется в путешествие в поисках исцеления и открывает в себе невероятные способности к трансформации пространства и времени. Теперь он — связующее звено между параллельными измерениями, а его миссия — защищать жителей Земли и противодействовать Злу, какое бы обличие оно ни принимало.

Качество: WEB-DL 720p
Формат: MKV
Видео кодек: H.264
Аудио кодек: AC3

Видео: 1280x536p (2.40:1), 23.976 fps, AVC MPEG-4 (H.264), High@L4.1 ~4000 kbps, 0.227 bit/pixel
Аудио#1: Русский: 48 kHz, AC3 Dolby Digital, 6 ch, ~384 kbps (полное дублирование)
Аудио#2: Английский: 48 kHz, AC3 Dolby Digital, 6 ch, ~384 kbps [Оригинал]
Формат : Matroska
Версия формата : Version 4 / Version 2
Размер файла : 3,86 Гбайт
Продолжительность : 1 ч. 55 м.
Общий поток : 4768 Кбит/сек
Дата кодирования : UTC 2017-02-13 23:16:59
Программа кодирования : mkvmerge v9.8.0 ('Kuglblids') 64bit
Библиотека кодирования : libebml v1.3.4 + libmatroska v1.4.5

Видео
Идентификатор : 1
Формат : AVC
Формат/Информация : Advanced Video Codec
Профиль формата : High@L4
Параметр CABAC формата : Да
Параметр ReFrames формата : 5 кадров
Идентификатор кодека : V_MPEG4/ISO/AVC
Продолжительность : 1 ч. 55 м.
Битрейт : 4000 Кбит/сек
Ширина : 1280 пикселей
Высота : 536 пикселей
Соотношение сторон : 2,40:1
Режим частоты кадров : Постоянный
Частота кадров : 23,976 кадра/сек
Цветовое пространство : YUV
Субдискретизация насыщенности : 4:2:0
Битовая глубина : 8 бит
Тип развёртки : Прогрессивная
Бит/(Пиксели*Кадры) : 0.227
Размер потока : 3,24 Гбайт (84%)
Default : Да
Forced : Нет
Цветовой диапазон : Limited
Основные цвета : BT.709
Характеристики трансфера : BT.709
Коэффициенты матрицы : BT.709

Аудио #1
Идентификатор : 2
Формат : AC-3
Формат/Информация : Audio Coding 3
Расширение режима : CM (complete main)
Параметр Endianness формата : Big
Идентификатор кодека : A_AC3
Продолжительность : 1 ч. 55 м.
Вид битрейта : Постоянный
Битрейт : 384 Кбит/сек
Каналы : 6 каналов
Расположение каналов : Front: L C R, Side: L R, LFE
Частота : 48,0 КГц
Частота кадров : 31,250 кадров/сек (1536 spf)
Битовая глубина : 16 бит
Метод сжатия : С потерями
Размер потока : 318 Мбайт (8%)
Язык : Russian
Default : Да
Forced : Нет

Аудио #2
Идентификатор : 3
Формат : AC-3
Формат/Информация : Audio Coding 3
Расширение режима : CM (complete main)
Параметр Endianness формата : Big
Идентификатор кодека : A_AC3
Продолжительность : 1 ч. 55 м.
Вид битрейта : Постоянный
Битрейт : 384 Кбит/сек
Каналы : 6 каналов
Расположение каналов : Front: L C R, Side: L R, LFE
Частота : 48,0 КГц
Частота кадров : 31,250 кадров/сек (1536 spf)
Битовая глубина : 16 бит
Метод сжатия : С потерями
Размер потока : 318 Мбайт (8%)
Заголовок : AC3, 6 ch, 384 Kbps, Original
Язык : English
Default : Нет
Forced : Нет

Текст #1
Идентификатор : 4
Формат : UTF-8
Идентификатор кодека : S_TEXT/UTF8
Идентификатор кодека/Информация : UTF-8 Plain Text
Продолжительность : 1 ч. 48 м.
Битрейт : 53 бит/сек
Count of elements : 1240
Размер потока : 42,6 Кбайт (0%)
Заголовок : Full
Default : Нет
Forced : Нет

Текст #2
Идентификатор : 5
Формат : UTF-8
Идентификатор кодека : S_TEXT/UTF8
Идентификатор кодека/Информация : UTF-8 Plain Text
Продолжительность : 1 ч. 48 м.
Битрейт : 53 бит/сек
Count of elements : 1240
Размер потока : 42,6 Кбайт (0%)
Заголовок : Full
Язык : English
Default : Нет
Forced : Нет
скриншот   скриншот   скриншот   скриншот  
pb.wtf



Скачать Доктор Стрэндж через торрент http://s017.radikal.ru/i407/1610/60/d9093e6dc3bd.jpg Скачать фильм Доктор Стрэндж через торрент бесплантно в хорошем качестве Описание: Страшная автокатастрофа поставила крест на карьере успешного нейрохирурга Доктора Стрэнджа. Отчаявшись, он отправляется в ... 9.4 10 22
Info! Золотая раздача, скачанное не засчитывается.
Торрент: Зарегистрирован [2017-02-13 20:52] · скачан: 468 раз
Статус: √ проверено
Размер: 3.86 GB
Как cкачать? Как скачать Доктор Стрэндж через торрент | qTorrent

% Раздел Тема Автор DL S | L
Ultra HD (UHD: 2K, 4K, 8K) — видео сверхвысокой чёткости [ 10.88 GB ] Доктор Стрэндж / Doctor Strange [2016 UHD BDRip 2160p] DUB [] +3xAVO bober100 Скачать
1 | 0
Ultra HD (UHD: 2K, 4K, 8K) — видео сверхвысокой чёткости [ 65.46 GB ] Доктор Стрэндж / Doctor Strange [2016 UHD BDRemux 2160p] DUB [] +2xAVO bober100 Скачать
2 | 0
Фильмы (HD 720p, 1080p) (48-60 fps) [ 4.85 GB ] Доктор Стрэндж / Doctor Strange [2016 BDRip - HEVC 1080p 12 bit 60 FPS] dd2d3 Скачать
1 | 0
Фильмы [HD 720p, 1080p] (Хороший звук DUB, MVO) [ 6.48 GB ] Доктор Стрэндж / Doctor Strange [2016 BDRip 1080p HEVC ()] Мичман37 Скачать
2 | 0
Ultra HD (UHD: 2K, 4K, 8K) — видео сверхвысокой чёткости [ 70.71 GB ] Доктор Стрэндж / Doctor Strange [2016 UHD BDRemux 2160p] [Remastered] DUB + 3xAVO + VO sheker187 Скачать
1 | 0
Фильмы (Blu-ray, BD-Remux, HDDVD) [ 40.31 GB ] Доктор Стрэндж / Doctor Strange [2016 BDRemux 1080p] DUB + 3xAVO + VO sheker187 Скачать
1 | 0
Фильмы (Blu-ray, BD-Remux, HDDVD) [ 26.49 GB ] Доктор Стрэндж / Doctor Strange [2016 BDRemux 1080p] от ExKinoRay / Russian Mafia Скачать
1 | 0

28-11-2019 20:33  

Отключить всю рекламу на сайте

13-02-2017 22:31 Доктор Стрэндж Скачать торрент  

где ты был вчера? pb.wtf



14-02-2017 04:03 Доктор Стрэндж Скачать торрент  

ну и шлакккккpb.wtf



    Дорогой пользователь! Огромная просьба, поблагодарите релизера, оцените раздачу и оставьте свои комментарий, если Вы скачали Доктор Стрэндж через торрент бесплатно! Внесите свою лепту в развитие PiratBit!
    Комментировать посты могут только пользователи прошедшие не сложную регистрацию
    Показать сообщения:    

    Доктор Стрэндж через торрент
    Скачать бесплатно Доктор Стрэндж
    Доктор Стрэндж скачать торрент
    Доктор Стрэндж смотреть онлайн
    Cкачать фильм Доктор Стрэндж бесплатно
    Доктор Стрэндж скачать торрент в хорошем качестве
    Доктор Стрэндж смотреть онлайн бесплатно в хорошем качестве


    Вы не можете начинать темы
    Вы не можете отвечать на сообщения
    Вы не можете редактировать свои сообщения
    Вы не можете удалять свои сообщения
    Вы не можете голосовать в опросах
    Вы не можете прикреплять файлы к сообщениям
    Вы можете скачивать файлы