Ссылка на приватное зеркало нашего сайта всего за 1$. Внимание количество ограничено!!!

2 сезон

iTunes

1 сезон

1

2 сезон

2 сезон

iTunes

1 сезон

RePack

30

Новинка

ВАЖНО

ИГРА 18+

pack

RePack

MK11
pack

Забери бонус

RePack

jed

!!Акция!!

Alien_Rage

RePack

fifa19

RePack

Assassins Creed: Odyssey

RePack

NEED FOR SPEED™ PAYBACK

4 сезон

9 сезон

Бесстыжие 9 сезон

Все сериалы

все сериалы на PB.wtf

RePack

FAR CRY 5
  

Он / Him / Сезон 1 / Серии 1-3 из 3 (Энди де Эммони / Andy DeEmmony) [2016 , Великобритания, драма, WEB-DLRip-AVC] MVO [BaibaKo] pb.wtf

Он через торрент pb.wtf

Размер: 2.31 GB | Добавлен: 3 года 9 мес. назад | Торрент скачан:13 раз
Скачать  

14-02-2017 01:35 Он Скачать торрент  

Он / Him


  • Год выпуска: 2016
  • Страна: Великобритания
  • Жанр: драма
  • Продолжительность: 00:46:07 (Серия)
  • Перевод: Профессиональный многоголосый [BaibaKo]
  • Режиссер: Энди де Эммони / Andy DeEmmony
  • В ролях:

    Симона Браун (Faith), Анджела Брюс (Fran), МакКелл Дэвид (Jamie), Сьюзэн Джеймисон (Rose), Кэтерин Келли (Hannah), Люси Лиманн (Beth), Джеймс Мюррэй (Edward), Алек Ньюман (Ross Brodie), Патрик Робинсон (Victor), Бобби Соллдридж (Jack Davies), Фьён Уайтхед (Him), Woody Norman (Him, aged 7)


  • Он - подросток, обладающий особой загадочной силой. Это проявляется с детства самым неожиданным образом. Так что при нём лучше даже не ссориться. Аномальные проявления обостряются из-за сложных взаимоотношений, когда родители в разводе, и провоцируется активация сверхъестественной силы, которую подростку тяжело контролировать, и из-за которой ранее уже что-то произошло с его дедом.
  • Рейтинг:



  • Качество: WEB-DLRip-AVC
  • Формат: :MPEG-4
  • Видео кодек: AVC
  • Аудио кодек: AC3
  • Видео: 1024x576 (16:9), 2000 kbps, 25 fps, 0,136 bpp
  • Аудио №1: русский / 2.0 / 48 kHz / 192 kbps / 16 bit |[BaibaKo]|
  • Аудио №2: английский / 2.0 / 48 kHz / 192 kbps / 16 bit
  • Релиз от: GEKADOL

    General
    Complete name : H:\Он (Him 1)\HIM.s01e01.WEB-DLRip-AVC.Rus.Eng.BaibaKo.tv.mp4
    Format : MPEG-4
    Format profile : Base Media
    Codec ID : isom (isom/iso2/avc1/mp41)
    File size : 788 MiB
    Duration : 46 min
    Overall bit rate : 2 390 kb/s
    Writing application : XviD4PSP 7.0.352 DAILY
    HDVideo : Yes
    encoding_info : MATROSKA / WEBM > MP4 Произвольный / H264 > X264 CBR 2000kbps HQ / AC3 > AC3 CBR 192kbps / AC3 > AC3 CBR 192kbps

    Video
    ID : 1
    Format : AVC
    Format/Info : Advanced Video Codec
    Format profile : High@L4.1
    Format settings, CABAC : Yes
    Format settings, ReFrames : 4 frames
    Codec ID : avc1
    Codec ID/Info : Advanced Video Coding
    Duration : 46 min
    Bit rate : 2 000 kb/s
    Width : 1 024 pixels
    Height : 576 pixels
    Display aspect ratio : 16:9
    Frame rate mode : Constant
    Frame rate : 25.000 FPS
    Color space : YUV
    Chroma subsampling : 4:2:0
    Bit depth : 8 bits
    Scan type : Progressive
    Bits/(Pixel*Frame) : 0.136
    Stream size : 660 MiB (84%)
    Writing library : x264 core 148 r2762M 90a61ec
    Encoding settings : cabac=1 / ref=3 / deblock=1:-1:-1 / analyse=0x3:0x133 / me=hex / subme=7 / psy=1 / psy_rd=1.00:0.20 / mixed_ref=1 / me_range=16 / chroma_me=1 / trellis=1 / 8x8dct=1 / cqm=0 / deadzone=21,11 / fast_pskip=1 / chroma_qp_offset=-3 / threads=5 / lookahead_threads=1 / sliced_threads=0 / nr=0 / decimate=1 / interlaced=0 / bluray_compat=0 / constrained_intra=0 / bframes=3 / b_pyramid=2 / b_adapt=2 / b_bias=0 / direct=3 / weightb=1 / open_gop=0 / weightp=2 / keyint=250 / keyint_min=25 / scenecut=40 / intra_refresh=0 / rc_lookahead=40 / rc=cbr / mbtree=1 / bitrate=2000 / ratetol=1.0 / qcomp=0.60 / qpmin=0 / qpmax=69 / qpstep=4 / vbv_maxrate=2000 / vbv_bufsize=30000 / nal_hrd=none / filler=0 / ip_ratio=1.40 / aq=1:1.00

    Audio #1
    ID : 2
    Format : AC-3
    Format/Info : Audio Coding 3
    Mode extension : CM (complete main)
    Format settings, Endianness : Big
    Codec ID : ac-3
    Duration : 46 min
    Bit rate mode : Constant
    Bit rate : 192 kb/s
    Channel(s) : 2 channels
    Channel positions : Front: L R
    Sampling rate : 48.0 kHz
    Frame rate : 31.250 FPS (1536 spf)
    Bit depth : 16 bits
    Compression mode : Lossy
    Stream size : 63.3 MiB (8%)
    Language : Russian
    Default : Yes
    Alternate group : 1

    Audio #2
    ID : 3
    Format : AC-3
    Format/Info : Audio Coding 3
    Mode extension : CM (complete main)
    Format settings, Endianness : Big
    Codec ID : ac-3
    Duration : 46 min
    Bit rate mode : Constant
    Bit rate : 192 kb/s
    Channel(s) : 2 channels
    Channel positions : Front: L R
    Sampling rate : 48.0 kHz
    Frame rate : 31.250 FPS (1536 spf)
    Bit depth : 16 bits
    Compression mode : Lossy
    Stream size : 63.3 MiB (8%)
    Language : English
    Default : No
    Alternate group : 1



    Скриншоты:



    pb.wtf



  • Скачать Он через торрент http://i90.fastpic.ru/big/2017/0214/74/a4b8451182aac5a9c99c75634c2f2674.jpg Скачать фильм Он через торрент бесплантно в хорошем качестве qw.png Он - подросток, обладающий особой загадочной силой. Это проявляется с детства самым неожиданным образом. Так что при нём лучше ... 5 10 1
    Info! Золотая раздача, скачанное не засчитывается.
    Торрент: Зарегистрирован [2017-02-14 01:35] · скачан: 13 раз
    Статус: √ проверено
    Размер: 2.31 GB
    Как cкачать? Как скачать Он через торрент | qTorrent

    % Раздел Тема Автор DL S | L
    Зарубежные сериалы [ 4.65 GB ] Под одним небом / Der gleiche Himmel / Сезон: 1 / Серии: 1-3 из 3 [2017 шпионский BDRip] DVO [ViruseProject] bober100 Скачать
    1 | 0
    Зарубежные сериалы [ 15.93 GB ] Под одним небом / Der gleiche Himmel / Сезон: 1 / Серии: 1-3 из 3 [2017 шпионский BDRip 720p] DVO [ViruseProject] bober100 Скачать
    1 | 0

    28-11-2019 20:33  

    Отключить всю рекламу на сайте

      Дорогой пользователь! Огромная просьба, поблагодарите релизера, оцените раздачу и оставьте свои комментарий, если Вы скачали Он через торрент бесплатно! Внесите свою лепту в развитие PiratBit!
      Комментировать посты могут только пользователи прошедшие не сложную регистрацию
      Показать сообщения:    

      Он через торрент
      Скачать бесплатно Он
      Он скачать торрент
      Он смотреть онлайн
      Cкачать фильм Он бесплатно
      Он скачать торрент в хорошем качестве
      Он смотреть онлайн бесплатно в хорошем качестве


      Вы не можете начинать темы
      Вы не можете отвечать на сообщения
      Вы не можете редактировать свои сообщения
      Вы не можете удалять свои сообщения
      Вы не можете голосовать в опросах
      Вы не можете прикреплять файлы к сообщениям
      Вы можете скачивать файлы