новый адрес
Мега распродажа FORZA HORIZON 4 ULTIMATE+ВСЕ DLC+ОНЛАЙН всего за 499р. 349 руб. (супер цена). Внимание количество ограничено!!!

iTunes

1+1

iTunes

мы

iTunes

1

iTunes

Чернобыль

iTunes

Ральф против интернета

Лицензия

ПШазам

Лицензия

Игра престолов

Лицензия

30
pack

ВАЖНО

!!Акция!!

Alien_RageХит недели

RePack

Resident Evil 21

ИГРА 18+

pack

RePack

Metro:Exodus

!!Акция!!

Alien_Rage

RePack

fifa19

RePack

Assassins Creed: Odyssey

RePack

NEED FOR SPEED™ PAYBACK

3 сезон

9 сезон

Бесстыжие 9 сезон

Все сериалы

все сериалы на PB.wtf

RePack

FAR CRY 5
Ребята, катастрофически не хватает 1900р. для оплаты серверов за Октябрь (всвязи с блокировками трафик упал в 3 раза), 1-2р., выручайте.
  

Особое поручение (Евгений Иванов-Барков, Алты Карлиев) [1957, СССР, приключения, история, VHSRip от AVP Studio] pb.wtf

Особое поручение через торрент pb.wtf

Размер: 1.09 GB | Добавлен: 2 года 9 мес. назад | Торрент скачан:10 раз
Скачать  

14-02-2017 10:47 Особое поручение Скачать торрент  

Особое поручение
Страна: СССР
Производство: Туркменфильм

Жанр: приключения, история
Год выпуска: 1957
Продолжительность: 01:29:15

Перевод: Не требуется
Cубтитры: нет
Оригинальная аудиодорожка: русский

Режиссер: Евгений Иванов-Барков, Алты Карлиев

В ролях:
Алты Карлиев, Павел Волков, Кулькиши Кульмурадов, Валентина Куценко, Сабира Атаева, Виктор Брежнев, Зоя Степанова, М. Кепбанов, П. Ильясов, Сергей Стеценко, А. Бяшимов, Ата Дурдыев, Аман Курбандурдыев, Павел Стрелин, Ходжоу Аннадурдыев, Назар Бекмиев, Абрам Каратов, Аман Кульмамедов...
Полный список актёров

Описание:
Действие происходит в Туркмении в годы гражданской войны. Алты Мергенов по особому заданию комдива проникает в штаб крупного контрреволюционного соединения, которым командует полковник Савицкий. Ещё до революции Мергенов служил офицером в полку Савицкого и пользовался уважением за свою храбрость. Штаб белых разместился в родном городе Алты. Его невеста, Наташа Лемчук, и друзья юности, с негодованием отворачиваются от "изменника". Правду знает только руководитель подполья рабочий Лемчук, отец Наташи, с которым Мергенов связался для передачи информации. Старая мать Алты становится случайной виновницей провала подпольщиков. Спастись удается только Наташе и ее отцу. Но потом Лемчук погибает в схватке с белыми. Выполнив задание, Мергенов уходит к партизанам...

Источник: VHS
Качество видео: VHSRip
Формат видео: AVI

Видео: 704x528 (4:3), 25,000 кадров/сек, XviD ~ 1547 kbps avg, 0.166 bit/pixel
Аудио: 48 kHz, Dolby Digital AC3 2.0, 192 kbps

Раздача от:
Общее
Полное имя : Osoboe.poruchenie.1957.VHSRip_[New-team]_by_AVP_Studio.avi
Формат : AVI
Формат/Информация : Audio Video Interleave
Размер файла : 1,09 Гбайт
Продолжительность : 1 ч. 29 м.
Общий поток : 1749 Кбит/сек
Программа кодирования : VirtualDubMod 1.5.10.3 | www.virtualdub-fr.org || (build 2550/release)
Библиотека кодирования : VirtualDubMod build 2550/release

Видео
Идентификатор : 0
Формат : MPEG-4 Visual
Профиль формата : Advanced Simple@L5
Параметр BVOP формата : 1
Параметр QPel формата : Нет
Параметр GMC формата : Без точки перехода
Параметр матрицы формата : Выборочная
Идентификатор кодека : XVID
Идентификатор кодека/Подсказка : XviD
Продолжительность : 1 ч. 29 м.
Битрейт : 1547 Кбит/сек
Ширина : 704 пикселя
Высота : 528 пикселей
Соотношение сторон : 4:3
Частота кадров : 25,000 кадров/сек
Цветовое пространство : YUV
Субдискретизация насыщенности : 4:2:0
Битовая глубина : 8 бит
Тип развёртки : Прогрессивная
Метод сжатия : С потерями
Бит/(Пиксели*Кадры) : 0.166
Размер потока : 987 Мбайт (88%)
Библиотека кодирования : XviD 73

Аудио
Идентификатор : 1
Формат : AC-3
Формат/Информация : Audio Coding 3
Расширение режима : CM (complete main)
Параметр Endianness формата : Big
Идентификатор кодека : 2000
Продолжительность : 1 ч. 29 м.
Вид битрейта : Постоянный
Битрейт : 192 Кбит/сек
Каналы : 2 канала
Расположение каналов : Front: L R
Частота : 48,0 КГц
Частота кадров : 31,250 кадров/сек (1536 spf)
Битовая глубина : 16 бит
Метод сжатия : С потерями
Размер потока : 123 Мбайт (11%)
Выравнивание : Разделение по промежуткам
Продолжительность промежутка : 40 мс. (1,00 видеокадр)
Время предзагрузки промежутка : 500 мс
pb.wtf



Скачать Особое поручение через торрент http://s03.radikal.ru/i176/1702/1e/a43080ab271d.png Скачать фильм Особое поручение через торрент бесплантно в хорошем качестве Описание:Действие происходит в Туркмении в годы гражданской войны. Алты Мергенов по особому заданию комдива проникает в штаб крупного ... 10 10 2
Info! Золотая раздача, скачанное не засчитывается.
Торрент: Зарегистрирован [2017-02-14 10:47] · скачан: 10 раз
Статус: √ проверено
Размер: 1.09 GB
Как cкачать? Как скачать Особое поручение через торрент | qTorrent

% Раздел Тема Автор DL S | L
Кино СССР [ 1.09 GB ] Особое поручение [1957 СССР история VHSRip-AVC от AVP Studio] AVP Studio Скачать
1 | 0
Детективы, Боевики, Триллеры [ 567 MB ] Борис Акунин - Особые поручения [Сергей Чонишвили 2011 128 kbps MP3] Бумер Скачать
1 | 2
Детективы, Боевики, Триллеры [ 569 MB ] Борис Акунин - Особые поручения: "Пиковый валет" "Декоратор" [2010 MP3 128 kbs] bekas1977 Скачать
1 | 1


>> Регистрируемся здесь <<






Отзывы и комментарии о схеме читаем и пишем здесь: ---> Отзывы и комментарии о схеме

Новые благодарочки в телеграм довольных пользователей:
скриншот   скриншот   скриншот   скриншот   скриншот
    Дорогой пользователь! Огромная просьба, поблагодарите релизера, оцените раздачу и оставьте свои комментарий, если Вы скачали Особое поручение через торрент бесплатно! Внесите свою лепту в развитие PiratBit!
    Комментировать посты могут только пользователи прошедшие не сложную регистрацию
    Показать сообщения:    

    Особое поручение через торрент
    Скачать бесплатно Особое поручение
    Особое поручение скачать торрент
    Особое поручение смотреть онлайн
    Cкачать фильм Особое поручение бесплатно
    Особое поручение скачать торрент в хорошем качестве
    Особое поручение смотреть онлайн бесплатно в хорошем качестве


    Вы не можете начинать темы
    Вы не можете отвечать на сообщения
    Вы не можете редактировать свои сообщения
    Вы не можете удалять свои сообщения
    Вы не можете голосовать в опросах
    Вы не можете прикреплять файлы к сообщениям
    Вы можете скачивать файлы