Ссылка на приватное зеркало всего за 1$. Внимание количество ограничено!!!

iTunes

iTunes

iTunes

1

iTunes

iTunes

iTunes

iTunes

iTunes

30
pack

$ от Little Big

ВАЖНО

!!Акция!!

Alien_RageХит недели

RePack

Resident Evil 21

ИГРА 18+

pack

RePack

jed

!!Акция!!

Alien_Rage

RePack

fifa19

RePack

Assassins Creed: Odyssey

RePack

NEED FOR SPEED™ PAYBACK

4 сезон

9 сезон

Бесстыжие 9 сезон

Все сериалы

все сериалы на PB.wtf

RePack

FAR CRY 5
  

Призрак дома Бриар / Невысказанный / The Haunting of Briar House / Unspoken (Шелдон Уилсон) [2015, ужасы, триллер, WEB-DL 1080p] Дубляж - [Лицензия / iTunes] pb.wtf

Призрак дома Бриар через торрент pb.wtf

Размер: 3.6 GB | Добавлен: 3 года 5 мес. назад | Торрент скачан:277 раз
Скачать  

14-02-2017 18:41 Призрак дома Бриар Скачать торрент  

Призрак дома Бриар / The Unspoken

Год выпуска: 2015
Страна: Канада
Жанр: ужасы, триллер

Продолжительность: 01:35:40
Перевод: Дубляж - [Лицензия / iTunes]
Субтитры: английские
Режиссер: Шелдон Уилсон
В ролях:

Джоделль Ферланд (Angela), Санни Сулджик (Adrian), Паскаль Хаттон (Jeanie), Энтони Конечни (Luther), Джонатан Уайтселл (Logan), Джейк Крокер (Rodney), Шанель Пелозо (Pandy), Рукия Бернард (Portia), Локлин Манро (Dad), Майкл Роджерс (Elon), Нил МакДонаф (Officer Bower), Коул Виг (Officer Simms)
Описание:
В 1997 году в один дом была вызвана полиция. В доме никого не было, но повсюду была кровь, следы борьбы и полицейский видел нечто странное. 17 лет спустя в дом заселяется молодая женщина с девятилетним молчаливым сыном Адрианом. Неприятности не заставляют себя долго ждать, когда выясняется, что группа местных ребят прятала наркотики в подвале этого дома.
Рейтинг:

Качество: WEB-DL 1080p
Формат: MKV
Видео: AVC, 1908x794 (2.40:1), 4504 kbps, 23,976 fps, 0,124 bpp
Аудио №1: русский / AC3 / 5.1 / 48 kHz / 384 kbps / |Дубляж, iTunes|
Аудио №2: английский / AC3 / 5.1 / 48 kHz / 384 kbps /
Навигация по главам: есть

Общее
Уникальный идентификатор : 243843422040658754860603682033492439935 (0xB77288EA4A7A8EF6BFA6047C04CA337F)
Полное имя : E:\The.Unspoken.2015.D.1080p.WEB-DL.mkv
Формат : Matroska
Версия формата : Version 4 / Version 2
Размер файла : 3,60 Гбайт
Продолжительность : 1 ч. 35 м.
Общий поток : 5381 Кбит/сек
Дата кодирования : UTC 2017-02-14 18:33:26
Программа кодирования : mkvmerge v9.8.0 ('Kuglblids') 64bit
Библиотека кодирования : libebml v1.3.4 + libmatroska v1.4.5

Видео
Идентификатор : 1
Формат : AVC
Формат/Информация : Advanced Video Codec
Профиль формата : High@L4
Параметр CABAC формата : Да
Параметр ReFrames формата : 5 кадров
Идентификатор кодека : V_MPEG4/ISO/AVC
Продолжительность : 1 ч. 35 м.
Битрейт : 4611 Кбит/сек
Ширина : 1908 пикселей
Высота : 794 пикселя
Соотношение сторон : 2,40:1
Режим частоты кадров : Постоянный
Частота кадров : 23,976 (24000/1001) кадра/сек
Цветовое пространство : YUV
Субдискретизация насыщенности : 4:2:0
Битовая глубина : 8 бит
Тип развёртки : Прогрессивная
Бит/(Пиксели*Кадры) : 0.127
Размер потока : 3,08 Гбайт (86%)
Язык : English
Default : Да
Forced : Нет
Цветовой диапазон : Limited
Основные цвета : BT.709
Характеристики трансфера : BT.709
Коэффициенты матрицы : BT.709

Аудио #1
Идентификатор : 2
Формат : AC-3
Формат/Информация : Audio Coding 3
Расширение режима : CM (complete main)
Параметр Endianness формата : Big
Идентификатор кодека : A_AC3
Продолжительность : 1 ч. 35 м.
Вид битрейта : Постоянный
Битрейт : 384 Кбит/сек
Каналы : 6 каналов
Расположение каналов : Front: L C R, Side: L R, LFE
Частота : 48,0 КГц
Частота кадров : 31,250 кадров/сек (1536 spf)
Битовая глубина : 16 бит
Метод сжатия : С потерями
Размер потока : 263 Мбайт (7%)
Заголовок : Дубляж, iTunes
Язык : Russian
Default : Да
Forced : Нет

Аудио #2
Идентификатор : 3
Формат : AC-3
Формат/Информация : Audio Coding 3
Расширение режима : CM (complete main)
Параметр Endianness формата : Big
Идентификатор кодека : A_AC3
Продолжительность : 1 ч. 35 м.
Вид битрейта : Постоянный
Битрейт : 384 Кбит/сек
Каналы : 6 каналов
Расположение каналов : Front: L C R, Side: L R, LFE
Частота : 48,0 КГц
Частота кадров : 31,250 кадров/сек (1536 spf)
Битовая глубина : 16 бит
Метод сжатия : С потерями
Размер потока : 263 Мбайт (7%)
Заголовок : Оригинал
Язык : English
Default : Нет
Forced : Нет

Текст
Идентификатор : 4
Формат : UTF-8
Идентификатор кодека : S_TEXT/UTF8
Идентификатор кодека/Информация : UTF-8 Plain Text
Продолжительность : 1 ч. 30 м.
Битрейт : 35 бит/сек
Count of elements : 829
Размер потока : 23,5 Кбайт (0%)
Заголовок : Full
Язык : English
Default : Нет
Forced : Нет

Меню
00:00:00.000 : en:Chapter 1
00:06:21.673 : en:Chapter 2
00:13:05.076 : en:Chapter 3
00:18:55.092 : en:Chapter 4
00:24:07.487 : en:Chapter 5
00:32:57.725 : en:Chapter 6
00:38:31.266 : en:Chapter 7
00:47:28.553 : en:Chapter 8
00:54:01.821 : en:Chapter 9
00:59:12.756 : en:Chapter 10
01:05:05.275 : en:Chapter 11
01:09:30.039 : en:Chapter 12
01:16:23.660 : en:Chapter 13
01:20:49.467 : en:Chapter 14
01:26:40.901 : en:Chapter 15
01:32:34.879 : en:Chapter 16
pb.wtf



Скачать Призрак дома Бриар через торрент http://i2.imageban.ru/out/2017/02/14/c66314d6461b0ad0ac6d05ca5f805aa0.jpg Скачать фильм Призрак дома Бриар через торрент бесплантно в хорошем качестве Описание: В 1997 году в один дом была вызвана полиция. В доме никого не было, но повсюду была кровь, следы борьбы и полицейский видел нечто ... 8.9 10 8
Торрент: Зарегистрирован [2017-02-14 18:41] · скачан: 277 раз
Статус: √ проверено
Размер: 3.6 GB
Как cкачать? Как скачать Призрак дома Бриар через торрент | qTorrent

28-11-2019 20:33  

Отключить всю рекламу на сайте

    Дорогой пользователь! Огромная просьба, поблагодарите релизера, оцените раздачу и оставьте свои комментарий, если Вы скачали Призрак дома Бриар через торрент бесплатно! Внесите свою лепту в развитие PiratBit!
    Комментировать посты могут только пользователи прошедшие не сложную регистрацию
    Показать сообщения:    

    Призрак дома Бриар через торрент
    Скачать бесплатно Призрак дома Бриар
    Призрак дома Бриар скачать торрент
    Призрак дома Бриар смотреть онлайн
    Cкачать фильм Призрак дома Бриар бесплатно
    Призрак дома Бриар скачать торрент в хорошем качестве
    Призрак дома Бриар смотреть онлайн бесплатно в хорошем качестве


    Вы не можете начинать темы
    Вы не можете отвечать на сообщения
    Вы не можете редактировать свои сообщения
    Вы не можете удалять свои сообщения
    Вы не можете голосовать в опросах
    Вы не можете прикреплять файлы к сообщениям
    Вы можете скачивать файлы