1 сезон

3 сезон

iTunes

1

iTunes

DUB Netflix

iTunes

13

1 сезон

RePack

30

Deluxe

pack

Легкие деньги

ВАЖНО

ИГРА 18+

pack

RePack

MK11

RePack

jed

RePack

fifa19

RePack

RDR2

RePack

NEED FOR SPEED™ PAYBACK

4 сезон

9 сезон

Бесстыжие 9 сезон

Все сериалы

все сериалы на PB.wtf

RePack

FAR CRY 5

Anonymous, добрый вечер, мы не успеваем до 1 числа собрать деньги на оплату серверов, помогите нам пожалуйста в это трудное время. В качестве благодарности мы отключим Вам всю рекламу на сайте (укажите свой ник в строку Ваше имя)!

×
  
Magnet ссылка

Гори, моя звезда (Анатолий Слесаренко) [1957, СССР, киноповесть, DVDRip от AVP Studio] pb.wtf

Гори, моя звезда через торрент pb.wtf

Размер: 1.46 GB | Добавлен: 4 года 4 мес. назад | Торрент скачан:10 раз
Скачать  

15-02-2017 10:41 Гори, моя звезда Скачать торрент  

Гори, моя звезда
Страна: СССР
Производство: Киностудия им. А. Довженко

Жанр: киноповесть
Год выпуска: 1957
Продолжительность: 01:30:42

Перевод: Не требуется
Cубтитры: нет
Оригинальная аудиодорожка: русский

Режиссер: Анатолий Слесаренко

В ролях:
Пётр Омельченко, Татьяна Конюхова, Игорь Жилин, Николай Боголюбов, Иван Переверзев, Юрий Лавров, Елена Лицканович, Надежда Румянцева, Маргарита Криницына, Александр Шворин, Юрий Белов, Геннадий Юхтин, Александр Толстых, Лев Перфилов, Степан Шкурат, С. Ивинский, А. Кернер, Н. Руденко, Борис Болдыревский, Иван Бондарь, Степан Жаворонок, Евгений Кудряшёв, Иван Матвеев, Леонтий Полохов...
Об актёрах подробней

Описание:
Киноповесть и жизни и работе шахтеров Донбаcса.
Талантливый мастер Андрей Панченко назначен руководителем крупной шахты. Он полон надежд и счастлив, ведь рядом с ним - его любимая, очаровательная и надежная Тамара. Но не все складывается у него на работе, а случайная встреча с подругой детства, бойкой и задиристой Нелькой, совсем вскружила ему голову. Горячее сердце молодого парня разрывается между любовью и долгом, и вскоре Андрей оказывается на серьезном жизненном перепутье...

Источник: DVD5 R5
Качество видео: DVDRip
Формат видео: AVI

Видео: 688x512 (4:3), 25 fps, XviD ~ 2103 kbps avg, 0.239 bit/pixel
Аудио: 48 kHz, Dolby Digital AC3 2.0, 192 kbps

Раздача от:
Общее
Полное имя : Gori,moya.zvezda.1957.DVDRip_[New-team]_by_AVP_Studio.avi
Формат : AVI
Формат/Информация : Audio Video Interleave
Размер файла : 1,46 Гбайт
Продолжительность : 1 ч. 30 м.
Общий поток : 2305 Кбит/сек
Программа кодирования : VirtualDubMod 1.5.10.3 | www.virtualdub-fr.org || (build 2550/release)
Библиотека кодирования : VirtualDubMod build 2550/release

Видео
Идентификатор : 0
Формат : MPEG-4 Visual
Профиль формата : Advanced Simple@L5
Параметр BVOP формата : 1
Параметр QPel формата : Нет
Параметр GMC формата : Без точки перехода
Параметр матрицы формата : Выборочная
Идентификатор кодека : XVID
Идентификатор кодека/Подсказка : XviD
Продолжительность : 1 ч. 30 м.
Битрейт : 2103 Кбит/сек
Ширина : 688 пикселей
Высота : 512 пикселей
Соотношение сторон : 4:3
Частота кадров : 25,000 кадров/сек
Цветовое пространство : YUV
Субдискретизация насыщенности : 4:2:0
Битовая глубина : 8 бит
Тип развёртки : Прогрессивная
Метод сжатия : С потерями
Бит/(Пиксели*Кадры) : 0.239
Размер потока : 1,33 Гбайт (91%)
Библиотека кодирования : XviD 73

Аудио
Идентификатор : 1
Формат : AC-3
Формат/Информация : Audio Coding 3
Расширение режима : CM (complete main)
Параметр Endianness формата : Big
Идентификатор кодека : 2000
Продолжительность : 1 ч. 30 м.
Вид битрейта : Постоянный
Битрейт : 192 Кбит/сек
Каналы : 2 канала
Расположение каналов : Front: L R
Частота : 48,0 КГц
Частота кадров : 31,250 кадров/сек (1536 spf)
Битовая глубина : 16 бит
Метод сжатия : С потерями
Размер потока : 125 Мбайт (8%)
Выравнивание : Разделение по промежуткам
Продолжительность промежутка : 40 мс. (1,00 видеокадр)
Время предзагрузки промежутка : 500 мс
pb.wtf



Скачать Гори, моя звезда через торрент http://s011.radikal.ru/i317/1702/63/ecec94f0eb14.png Скачать фильм Гори, моя звезда через торрент бесплантно в хорошем качестве Описание:Киноповесть и жизни и работе шахтеров Донбаcса.Талантливый мастер Андрей Панченко назначен руководителем крупной шахты. Он полон ... 10 10 2
Info! Золотая раздача, скачанное не засчитывается.
Торрент: Зарегистрирован [2017-02-15 10:41] · скачан: 10 раз
Статус: √ проверено
Размер: 1.46 GB
Как cкачать? Как скачать Гори, моя звезда через торрент | UTorrent

% Раздел Тема Автор DL S | L
Кино СССР [ 1.46 GB ] Гори моя звезда [1957 СССР киноповесть DVDRip-AVC от AVP Studio] AVP Studio Скачать
1 | 0
Кино СССР [ 746 MB ] Гори моя звезда [1957 СССР киноповесть DVDRip от AVP Studio] AVP Studio Скачать
1 | 0

28-11-2019 20:33  

Отключить всю рекламу на сайте

    Дорогой пользователь! Огромная просьба, поблагодарите релизера, оцените раздачу и оставьте свои комментарий, если Вы скачали Гори, моя звезда через торрент бесплатно! Внесите свою лепту в развитие PiratBit!
    Комментировать посты могут только пользователи прошедшие не сложную регистрацию
    Показать сообщения:    

    Гори, моя звезда через торрент
    Скачать бесплатно Гори, моя звезда
    Гори, моя звезда скачать торрент
    Гори, моя звезда смотреть онлайн
    Cкачать фильм Гори, моя звезда бесплатно
    Гори, моя звезда скачать торрент в хорошем качестве
    Гори, моя звезда смотреть онлайн бесплатно в хорошем качестве


    Вы не можете начинать темы
    Вы не можете отвечать на сообщения
    Вы не можете редактировать свои сообщения
    Вы не можете удалять свои сообщения
    Вы не можете голосовать в опросах
    Вы не можете прикреплять файлы к сообщениям
    Вы можете скачивать файлы