новый адрес
Мега распродажа FORZA HORIZON 4 ULTIMATE+ВСЕ DLC+ОНЛАЙН всего за 499р. 349 руб. (супер цена). Внимание количество ограничено!!!

iTunes

1+1

iTunes

мы

iTunes

1

iTunes

Чернобыль

iTunes

Ральф против интернета

Лицензия

ПШазам

Лицензия

Игра престолов

Лицензия

30
pack

ВАЖНО

!!Акция!!

Alien_RageХит недели

RePack

Resident Evil 21

ИГРА 18+

pack

RePack

Metro:Exodus

!!Акция!!

Alien_Rage

RePack

fifa19

RePack

Assassins Creed: Odyssey

RePack

NEED FOR SPEED™ PAYBACK

3 сезон

9 сезон

Бесстыжие 9 сезон

Все сериалы

все сериалы на PB.wtf

RePack

FAR CRY 5
Ребята, катастрофически не хватает 1900р. для оплаты серверов за Октябрь (всвязи с блокировками трафик упал в 3 раза), 1-2р., выручайте.
  

Гори, моя звезда (Анатолий Слесаренко) [1957, СССР, киноповесть, DVDRip от AVP Studio] pb.wtf

Гори, моя звезда через торрент pb.wtf

Размер: 746 MB | Добавлен: 2 года 9 мес. назад | Торрент скачан:10 раз
Скачать  

15-02-2017 10:42 Гори, моя звезда Скачать торрент  

Гори, моя звезда
Страна: СССР
Производство: Киностудия им. А. Довженко

Жанр: киноповесть
Год выпуска: 1957
Продолжительность: 01:30:42

Перевод: Не требуется
Cубтитры: нет
Оригинальная аудиодорожка: русский

Режиссер: Анатолий Слесаренко

В ролях:
Пётр Омельченко, Татьяна Конюхова, Игорь Жилин, Николай Боголюбов, Иван Переверзев, Юрий Лавров, Елена Лицканович, Надежда Румянцева, Маргарита Криницына, Александр Шворин, Юрий Белов, Геннадий Юхтин, Александр Толстых, Лев Перфилов, Степан Шкурат, С. Ивинский, А. Кернер, Н. Руденко, Борис Болдыревский, Иван Бондарь, Степан Жаворонок, Евгений Кудряшёв, Иван Матвеев, Леонтий Полохов...
Об актёрах подробней

Описание:
Киноповесть и жизни и работе шахтеров Донбаcса.
Талантливый мастер Андрей Панченко назначен руководителем крупной шахты. Он полон надежд и счастлив, ведь рядом с ним - его любимая, очаровательная и надежная Тамара. Но не все складывается у него на работе, а случайная встреча с подругой детства, бойкой и задиристой Нелькой, совсем вскружила ему голову. Горячее сердце молодого парня разрывается между любовью и долгом, и вскоре Андрей оказывается на серьезном жизненном перепутье...

Источник: DVD5 R5
Качество видео: DVDRip
Формат видео: AVI

Видео: 640x480 (4:3), 25 fps, XviD ~ 1012 kbps avg, 0.132 bit/pixel
Аудио: 48 kHz, MP3 2.0, 128 kbps

Раздача от:
Общее
Полное имя : Gori,moya.zvezda.1957.DVDRip-745_[New-team]_by_AVP_Studio.avi
Формат : AVI
Формат/Информация : Audio Video Interleave
Размер файла : 746 Мбайт
Продолжительность : 1 ч. 30 м.
Общий поток : 1150 Кбит/сек
Программа кодирования : VirtualDubMod 1.5.10.3 | www.virtualdub-fr.org || (build 2550/release)
Библиотека кодирования : VirtualDubMod build 2550/release

Видео
Идентификатор : 0
Формат : MPEG-4 Visual
Профиль формата : Advanced Simple@L5
Параметр BVOP формата : 1
Параметр QPel формата : Нет
Параметр GMC формата : Без точки перехода
Параметр матрицы формата : Выборочная
Идентификатор кодека : XVID
Идентификатор кодека/Подсказка : XviD
Продолжительность : 1 ч. 30 м.
Битрейт : 1012 Кбит/сек
Ширина : 640 пикселей
Высота : 480 пикселей
Соотношение сторон : 4:3
Частота кадров : 25,000 кадров/сек
Цветовое пространство : YUV
Субдискретизация насыщенности : 4:2:0
Битовая глубина : 8 бит
Тип развёртки : Прогрессивная
Метод сжатия : С потерями
Бит/(Пиксели*Кадры) : 0.132
Размер потока : 656 Мбайт (88%)
Библиотека кодирования : XviD 73

Аудио
Идентификатор : 1
Формат : MPEG Audio
Версия формата : Version 1
Профиль формата : Layer 3
Идентификатор кодека : 55
Идентификатор кодека/Подсказка : MP3
Продолжительность : 1 ч. 30 м.
Вид битрейта : Постоянный
Битрейт : 128 Кбит/сек
Каналы : 2 канала
Частота : 48,0 КГц
Метод сжатия : С потерями
Размер потока : 83,0 Мбайт (11%)
Выравнивание : Соединение по промежуткам
Продолжительность промежутка : 40 мс. (1,00 видеокадр)
Время предзагрузки промежутка : 504 мс.
Библиотека кодирования : LAME3.99r
Настройки программы : -m s -V 4 -q 2 -lowpass 17 -b 128
pb.wtf



Скачать Гори, моя звезда через торрент http://s011.radikal.ru/i317/1702/63/ecec94f0eb14.png Скачать фильм Гори, моя звезда через торрент бесплантно в хорошем качестве Описание:Киноповесть и жизни и работе шахтеров Донбаcса.Талантливый мастер Андрей Панченко назначен руководителем крупной шахты. Он полон ... 5 10 1
Торрент: Зарегистрирован [2017-02-15 10:42] · скачан: 10 раз
Статус: √ проверено
Размер: 746 MB
Как cкачать? Как скачать Гори, моя звезда через торрент | qTorrent

% Раздел Тема Автор DL S | L
Кино СССР [ 1.46 GB ] Гори моя звезда [1957 СССР киноповесть DVDRip-AVC от AVP Studio] AVP Studio Скачать
1 | 0
Кино СССР [ 1.46 GB ] Гори моя звезда [1957 СССР киноповесть DVDRip от AVP Studio] AVP Studio Скачать
1 | 0


>> Регистрируемся здесь <<






Отзывы и комментарии о схеме читаем и пишем здесь: ---> Отзывы и комментарии о схеме

Новые благодарочки в телеграм довольных пользователей:
скриншот   скриншот   скриншот   скриншот   скриншот
    Дорогой пользователь! Огромная просьба, поблагодарите релизера, оцените раздачу и оставьте свои комментарий, если Вы скачали Гори, моя звезда через торрент бесплатно! Внесите свою лепту в развитие PiratBit!
    Комментировать посты могут только пользователи прошедшие не сложную регистрацию
    Показать сообщения:    

    Гори, моя звезда через торрент
    Скачать бесплатно Гори, моя звезда
    Гори, моя звезда скачать торрент
    Гори, моя звезда смотреть онлайн
    Cкачать фильм Гори, моя звезда бесплатно
    Гори, моя звезда скачать торрент в хорошем качестве
    Гори, моя звезда смотреть онлайн бесплатно в хорошем качестве


    Вы не можете начинать темы
    Вы не можете отвечать на сообщения
    Вы не можете редактировать свои сообщения
    Вы не можете удалять свои сообщения
    Вы не можете голосовать в опросах
    Вы не можете прикреплять файлы к сообщениям
    Вы можете скачивать файлы