Всегда рабочее зеркало без VPN и Proxy просто перед .vidak.icu напиши любое слово или цифру, Пример http://iiff.vidak.icu

MVO

2 сезон

1 сезон

1

1 сезон

iTunes

2 сезон

13

1 сезон

Deluxe

pack

Рекомендуем

Пиратка

30

ВАЖНО

RePack

MK11

RePack

jed

RePack

fifa19

RePack

RDR2

RePack

NEED FOR SPEED™ PAYBACK

Кинопоиск HD

6 сезон

 Острые козырьки 6 сезон

Все сериалы

все сериалы на PB.wtf

RePack

FAR CRY 5

Anonymous, нам критически не хватает 5601 руб. на оплату серверов и переферии за Апрель, помоги нам пожалуйста, вся надежда только на тебя. В благодарность мы отключим тебе всю рекламу на сайте!

×
  
Magnet ссылка

Нимфоманка: Часть 1-2 / Nymphomaniac: Vol. I-II (Ларс фон Триер) [2013 г., Драма, BDRip 1080p, Любительский многоголосый|HamsterStudio] pb.wtf

Нимфоманка: Часть 1-2 через торрент pb.wtf

Качают: 1 [ 0 KB/s ]
Размер: 26.65 GB | Добавлен: 5 лет 3 мес. назад | Торрент скачан:126 раз
Смотреть онлайн Нимфоманка: Часть 1-2 | Скачать    Ребята, помогите собрать деньги на оплату серверов!!!

16-02-2017 06:42 Нимфоманка: Часть 1-2 Скачать торрент  

Нимфоманка: Часть 1-2 / Nymphomaniac: Vol. I-II


Год выпуска: 2013
Страна: Дания, Бельгия, Франция, Германия, Великобритания
Жанр: Драма
Продолжительность: 02:28:01 + 02:58:11
Перевод: Любительский многоголосый|HamsterStudio
Субтитры: Русские, Английские

Режиссер: Ларс фон Триер

В ролях: Шарлотта Генсбур, Стэйси Мартин, Стеллан Скарсгард, Шайа ЛаБаф, Кристиан Слэйтер, Ума Турман, Софи Кеннеди Кларк, Йенс Альбинус, Николас Бро, Фелисити Гилберт, Джейми Белл, Уиллем Дефо, Миа Гот, Жан-Марк Барр, Майкл Пас

Описание: Это светлая и поэтичная история эротических переживаний женщины от рождения до пятидесятилетия, рассказанная от лица главной героини, женщины по имени Джо, поставившей себе диагноз — нимфомания. Холодным зимним утром Селигман, немолодой одинокий холостяк, натыкается в переулке на Джо, избитую и находящуюся в полубессознательном состоянии. Доставив женщину домой, он рассматривает ее раны и задается вопросом, как дошла она до такой жизни. Джо рассказывает Селигману историю своей насыщенной молодости, изобилующую параллельными сюжетами и неожиданными отступлениями…

Качество: BDRip 1080p
Формат: MKV
Видео кодек: H.264
Аудио кодек: AC3, DTS
Нимфоманка: Часть 1 / Nymphomaniac: Vol. I


Год выпуска: 2013
Страна: Дания, Бельгия, Франция, Германия, Великобритания
Жанр: Драма
Продолжительность: 02:28:01
Перевод: Любительский многоголосый HamsterStudio
Субтитры: Русские, Английские

Режиссер: Ларс фон Триер

rating

В ролях: Шарлотта Генсбур, Стэйси Мартин, Стеллан Скарсгард, Шайа ЛаБаф, Кристиан Слэйтер, Ума Турман, Софи Кеннеди Кларк, Йенс Альбинус, Николас Бро, Фелисити Гилберт, Джейми Белл, Уиллем Дефо, Миа Гот, Жан-Марк Барр, Майкл Пас

Описание: Однажды одинокий и уже не особенно молодой мужчина по имени Селигман нашел на улице Джо – сильно избитую женщину, лежащую без сознания. Принеся ее домой и осмотрев раны, Селигман в приходит в недоумение: как с ней могла приключиться такая беда? В ответ на этот вопрос Джо дает Селигману исчерпывающий ответ – начинает рассказывать свою историю, окрашенную во все тона эротических переживаний. Будучи еще совсем юной девушкой, Джо сама поставила себе диагноз «нимфомания» и решила, что нет смысла сдерживать сексуальные желания.

Качество: BDRip 1080p
Формат: MKV
Видео кодек: H.264
Аудио кодек: AC3
Видео: х.264, 1920x816, 10000 kbps, 24 fps, 0.266 bit/pixel
Аудио#1: 48 kHz, AC3 Dolby Digital, 2 ch, 192 kbps | RUS
Аудио#2: 48 kHz, DTS, 6 ch, 1 509 kb/s kbps | ENG
General
Unique ID : 185062136543475948242066404148941350698 (0x8B39ABC8E4A47B88A0BEC251354AE72A)
Complete name : C:\PiratBit\Нимфоманка Часть 1-2 (Nymphomaniac Vol. I-II) 2013 BDRip 1080p\Нимфоманка Часть 1 (Nymphomaniac Vol. I) 2013 BDRip 1080p.mkv
Format : Matroska
Format version : Version 2
File size : 12.1 GiB
Duration : 2 h 28 min
Overall bit rate : 11.7 Mb/s
Encoded date : UTC 2016-04-19 18:55:46
Writing application : mkvmerge v4.0.0 ('The Stars were mine') сборка от Jun 6 2010 16:18:42
Writing library : libebml v1.0.0 + libmatroska v1.0.0

Video
ID : 1
Format : AVC
Format/Info : Advanced Video Codec
Format profile : High@L4.1
Format settings, CABAC : Yes
Format settings, ReFrames : 5 frames
Codec ID : V_MPEG4/ISO/AVC
Duration : 2 h 28 min
Bit rate : 10 000 kb/s
Width : 1 920 pixels
Height : 816 pixels
Display aspect ratio : 2.35:1
Frame rate mode : Constant
Frame rate : 24.000 FPS
Color space : YUV
Chroma subsampling : 4:2:0
Bit depth : 8 bits
Scan type : Progressive
Bits/(Pixel*Frame) : 0.266
Stream size : 10.1 GiB (83%)
Writing library : x264 core 146 r2538 121396c
Encoding settings : cabac=1 / ref=5 / deblock=1:-3:-3 / analyse=0x3:0x133 / me=umh / subme=11 / psy=1 / psy_rd=1.00:0.00 / mixed_ref=1 / me_range=32 / chroma_me=1 / trellis=2 / 8x8dct=1 / cqm=0 / deadzone=21,11 / fast_pskip=0 / chroma_qp_offset=-2 / threads=12 / lookahead_threads=2 / sliced_threads=0 / nr=0 / decimate=0 / interlaced=0 / bluray_compat=0 / constrained_intra=0 / bframes=10 / b_pyramid=2 / b_adapt=2 / b_bias=0 / direct=3 / weightb=1 / open_gop=0 / weightp=2 / keyint=240 / keyint_min=24 / scenecut=40 / intra_refresh=0 / rc=2pass / mbtree=0 / bitrate=10000 / ratetol=1.0 / qcomp=0.60 / qpmin=0 / qpmax=69 / qpstep=4 / cplxblur=20.0 / qblur=0.5 / ip_ratio=1.40 / pb_ratio=1.30 / aq=1:0.80
Language : Danish
Default : No
Forced : No

Audio #1
ID : 2
Format : AC-3
Format/Info : Audio Coding 3
Mode extension : CM (complete main)
Format settings, Endianness : Big
Codec ID : A_AC3
Duration : 2 h 28 min
Bit rate mode : Constant
Bit rate : 192 kb/s
Channel(s) : 2 channels
Channel positions : Front: L R
Sampling rate : 48.0 kHz
Frame rate : 31.250 FPS (1536 spf)
Compression mode : Lossy
Stream size : 203 MiB (2%)
Title : MVOL HamsterStudio
Language : Russian
Default : No
Forced : No

Audio #2
ID : 3
Format : DTS
Format/Info : Digital Theater Systems
Mode : 16
Format settings, Endianness : Big
Codec ID : A_DTS
Duration : 2 h 28 min
Bit rate mode : Constant
Bit rate : 1 509 kb/s
Channel(s) : 6 channels
Channel positions : Front: L C R, Side: L R, LFE
Sampling rate : 48.0 kHz
Frame rate : 93.750 FPS (512 spf)
Bit depth : 16 bits
Compression mode : Lossy
Stream size : 1.56 GiB (13%)
Language : English
Default : No
Forced : No

Text #1
ID : 4
Format : UTF-8
Codec ID : S_TEXT/UTF8
Codec ID/Info : UTF-8 Plain Text
Language : Russian
Default : No
Forced : No

Text #2
ID : 5
Format : UTF-8
Codec ID : S_TEXT/UTF8
Codec ID/Info : UTF-8 Plain Text
Language : English
Default : No
Forced : No
Нимфоманка: Часть 2 / Nymphomaniac: Vol. II


Год выпуска: 2013
Страна: Дания, Бельгия, Франция, Германия, Великобритания
Жанр: Драма
Продолжительность: 02:58:11
Перевод: Любительский многоголосый|HamsterStudio
Субтитры: Русские, Английские

Режиссер: Ларс фон Триер

rating

В ролях: Шарлотта Генсбур, Стэйси Мартин, Стеллан Скарсгард, Шайа ЛаБаф, Кристиан Слэйтер, Ума Турман, Софи Кеннеди Кларк, Йенс Альбинус, Николас Бро, Фелисити Гилберт, Джейми Белл, Уиллем Дефо, Миа Гот, Жан-Марк Барр, Майкл Пас

Описание: Продолжение истории нимфоманки по имени Джо, чья жизнь была полна множества эротических переживаний, впечатлений и опытов. Она рассказывает о себе немолодому одинокому холостяку Селигману, который наткнулся на нее, избитую и находящуюся в полубессознательном состоянии, в переулке, доставил к себе домой и выходил…

Качество: BDRip 1080p
Формат: MKV
Видео кодек: H.264
Аудио кодек: AC3
Видео: х.264, 1920x816, 10000 kbps, 24 fps, 0.266 bit/pixel
Аудио#1: 48 kHz, AC3 Dolby Digital, 2 ch, 192 kbps | RUS
Аудио#2: 48 kHz, DTS, 6 ch, 1 509 kb/s kbps | ENG
General
Unique ID : 173321757646091270720067133883722233924 (0x82648E6A195D2F739A9D3F13DCA7F844)
Complete name : C:\PiratBit\Нимфоманка Часть 1-2 (Nymphomaniac Vol. I-II) 2013 BDRip 1080p\Нимфоманка Часть 2 (Nymphomaniac Vol. II) 2013 BDRip 1080p.mkv
Format : Matroska
Format version : Version 2
File size : 14.6 GiB
Duration : 2 h 58 min
Overall bit rate : 11.7 Mb/s
Encoded date : UTC 2016-04-21 07:39:18
Writing application : mkvmerge v4.0.0 ('The Stars were mine') сборка от Jun 6 2010 16:18:42
Writing library : libebml v1.0.0 + libmatroska v1.0.0

Video
ID : 1
Format : AVC
Format/Info : Advanced Video Codec
Format profile : High@L4.1
Format settings, CABAC : Yes
Format settings, ReFrames : 5 frames
Codec ID : V_MPEG4/ISO/AVC
Duration : 2 h 58 min
Bit rate : 10 000 kb/s
Width : 1 920 pixels
Height : 816 pixels
Display aspect ratio : 2.35:1
Frame rate mode : Constant
Frame rate : 24.000 FPS
Color space : YUV
Chroma subsampling : 4:2:0
Bit depth : 8 bits
Scan type : Progressive
Bits/(Pixel*Frame) : 0.266
Stream size : 12.2 GiB (83%)
Writing library : x264 core 146 r2538 121396c
Encoding settings : cabac=1 / ref=5 / deblock=1:-3:-3 / analyse=0x3:0x133 / me=umh / subme=11 / psy=1 / psy_rd=1.00:0.00 / mixed_ref=1 / me_range=32 / chroma_me=1 / trellis=2 / 8x8dct=1 / cqm=0 / deadzone=21,11 / fast_pskip=0 / chroma_qp_offset=-2 / threads=12 / lookahead_threads=2 / sliced_threads=0 / nr=0 / decimate=0 / interlaced=0 / bluray_compat=0 / constrained_intra=0 / bframes=10 / b_pyramid=2 / b_adapt=2 / b_bias=0 / direct=3 / weightb=1 / open_gop=0 / weightp=2 / keyint=240 / keyint_min=24 / scenecut=40 / intra_refresh=0 / rc=2pass / mbtree=0 / bitrate=10000 / ratetol=1.0 / qcomp=0.60 / qpmin=0 / qpmax=69 / qpstep=4 / cplxblur=20.0 / qblur=0.5 / ip_ratio=1.40 / pb_ratio=1.30 / aq=1:0.80
Language : Danish
Default : No
Forced : No

Audio #1
ID : 2
Format : AC-3
Format/Info : Audio Coding 3
Mode extension : CM (complete main)
Format settings, Endianness : Big
Codec ID : A_AC3
Duration : 2 h 58 min
Bit rate mode : Constant
Bit rate : 192 kb/s
Channel(s) : 2 channels
Channel positions : Front: L R
Sampling rate : 48.0 kHz
Frame rate : 31.250 FPS (1536 spf)
Compression mode : Lossy
Stream size : 245 MiB (2%)
Title : MVOL HamsterStudio
Language : Russian
Default : No
Forced : No

Audio #2
ID : 3
Format : DTS
Format/Info : Digital Theater Systems
Mode : 16
Format settings, Endianness : Big
Codec ID : A_DTS
Duration : 2 h 58 min
Bit rate mode : Constant
Bit rate : 1 509 kb/s
Channel(s) : 6 channels
Channel positions : Front: L C R, Side: L R, LFE
Sampling rate : 48.0 kHz
Frame rate : 93.750 FPS (512 spf)
Bit depth : 16 bits
Compression mode : Lossy
Stream size : 1.88 GiB (13%)
Language : English
Default : No
Forced : No

Text #1
ID : 4
Format : UTF-8
Codec ID : S_TEXT/UTF8
Codec ID/Info : UTF-8 Plain Text
Language : Russian
Default : No
Forced : No

Text #2
ID : 5
Format : UTF-8
Codec ID : S_TEXT/UTF8
Codec ID/Info : UTF-8 Plain Text
Language : English
Default : No
Forced : No
pb.wtf



Скачать Нимфоманка: Часть 1-2 через торрент https://pic1.kartinco.top/images/11/ql4yu.jpg Скачать, смотреть онлайн Нимфоманка: Часть 1-2 бесплантно в хорошем качестве Описание: Это светлая и поэтичная история эротических переживаний женщины от рождения до пятидесятилетия, рассказанная от лица главной ... 9.2 10 14
Info! Золотая раздача, скачанное не засчитывается.
Торрент: Зарегистрирован [2017-02-16 06:42] · скачан: 126 раз
Статус: √ проверено
Размер: 26.65 GB
Как cкачать? Как скачать Нимфоманка: Часть 1-2 через торрент | UTorrent

28-11-2019 20:33  

Отключить всю рекламу на сайте

16-02-2017 10:56 Нимфоманка: Часть 1-2 Скачать торрент  

даже Ельцин Б Н сыгралpb.wtf



16-02-2017 16:03 Нимфоманка: Часть 1-2 Скачать торрент  

Это полная версия или с вырезными сценами?pb.wtf



17-02-2017 10:23 Нимфоманка: Часть 1-2 Скачать торрент  

golubevart, вроде с вырезанными по хрономераду если память не изменяет, давно смотрел, ну ты посмотри сам поймешь, подсказка (коль узриш писюны...):Dpb.wtf



17-02-2017 19:19 Нимфоманка: Часть 1-2 Скачать торрент  

Все там есть)))pb.wtf



    Дорогой пользователь! Огромная просьба, поблагодарите релизера, оцените раздачу и оставьте свои комментарий, если Вы скачали Нимфоманка: Часть 1-2 через торрент бесплатно!
    Комментировать посты могут только пользователи прошедшие не сложную регистрацию
    Показать сообщения:    

    Нимфоманка: Часть 1-2 через торрент
    Скачать бесплатно Нимфоманка: Часть 1-2
    Нимфоманка: Часть 1-2 скачать торрент
    Нимфоманка: Часть 1-2 смотреть онлайн
    Cкачать фильм Нимфоманка: Часть 1-2 бесплатно
    Нимфоманка: Часть 1-2 скачать торрент в хорошем качестве
    Нимфоманка: Часть 1-2 смотреть онлайн бесплатно в хорошем качестве


    Вы не можете начинать темы
    Вы не можете отвечать на сообщения
    Вы не можете редактировать свои сообщения
    Вы не можете удалять свои сообщения
    Вы не можете голосовать в опросах
    Вы не можете прикреплять файлы к сообщениям
    Вы можете скачивать файлы