Ссылка на приватное зеркало нашего сайта всего за 1$. Внимание количество ограничено!!!

2 сезон

iTunes

1 сезон

1

iTunes

iTunes

iTunes

1 сезон

RePack

30

ИГРА 18+

pack

ВАЖНО

!!Акция!!

Alien_RageХит недели

RePack

MK11
pack

Забери бонус

RePack

jed

!!Акция!!

Alien_Rage

RePack

fifa19

RePack

Assassins Creed: Odyssey

RePack

NEED FOR SPEED™ PAYBACK

4 сезон

9 сезон

Бесстыжие 9 сезон

Все сериалы

все сериалы на PB.wtf

RePack

FAR CRY 5
  

Увалень Томми / Tommy Boy (Питер Сигал) [1995, комедия, BDRip 720p by msltel] 2 x MVO, 2 x AVO pb.wtf

Увалень Томми через торрент pb.wtf

Размер: 5.72 GB | Добавлен: 3 года 8 мес. назад | Торрент скачан:81 раз
Скачать  

16-02-2017 07:39 Увалень Томми Скачать торрент  

Название: Увалень Томми
Оригинальное название: Tommy Boy
Год выпуска: 1995
Страна: США
Жанр: комедия
Продолжительность: 01:37:04
Перевод: профессиональный многоголосый, авторский

Режиссёр: Питер Сигал

В ролях: Крис Фарли, Дэвид Спейд, Брайан Деннехи, Бо Дерек, Дэн Эйкройд, Джули Уорнер, Шон МакКэнн, Зак Гренье, Джеймс Блендик, Клинтон Тернбулл, Райдер Бриттон, Пол Гринберг, Грем Миллингтон, Майкл Крэм, Дин Маршалл, Трент МакКаллен, Филип Уильямс, Дэвид 'Скиппи' Маллой, Рой Льюис, Остин Пул, Уильям Данлоп, Джек Джессоп, Майкл Данстон, Дэвид Хемблен, Дов Тифенбах, Хелен Хьюз, Роберт К. Уайсс, Рег Дрегер, Ллойд Уайт, Дэвид Хубанд, Хейли Гиббонс, Джулианна Гиллис, Эддисон Белл, Кори Севьер, Мария Вакратсис, Колин Фокс, Лорри Бэгли, Линн Каннингэм, Дэвид Калдериси, Свен Ван Де Вен, Эррол Ситахал, Марк Стрэйндж, Майкл Юинг, Адриан Трасс, Кристофер Джон, Генри Гомезя

Описание: Томми с детства был толстяком и увальнем, вечно падающим, ударяющимся о двери и заборы, но не унывающим, добрым и отзывчивым. Закончив на все тройки колледж всего лишь на полгода позже остальных, он приезжает в родной городок, где его отец хочет, чтобы сын продолжил дело на семейном заводе автомобильных запчастей. Он преподносит сыну сюрприз — у Томми будет новая очаровательная мама, да к тому же ещё и брат, о котором наш добряк мечтал с детства. Всё было бы идеально, но на свадьбе отец умирает от разрыва сердца. Внезапная смерть отца перекладывает на плечи Тома управление заводом, а происки мачехи ещё добавляют проблем...



Качество: BDRip 720p
Формат: MKV
Видео: MPEG-4 AVC, 6638 Kбит/с, 1280x720, 23,976 кадра/с
Аудио 1: русский, AC3, 384 kbps, 6 ch, 48 kHz [профессиональный многоголосый, iTunes Russia]
Аудио 2: русский, AC3, 192 kbps, 2 ch, 48 kHz [профессиональный многоголосый, Paramount channel]
Аудио 3: русский, AC3, 384 kbps, 6 ch, 48 kHz [авторский, Юрий Живов]
Аудио 4: русский, AC3, 192 kbps, 2 ch, 48 kHz [авторский, Павел Санаев]
Аудио 5: английский, AC3, 640 kbps, 6 ch, 48 kHz [оригинал]
Общее
Уникальный идентификатор : 184581861904868665935801884749798430952 (0x8ADD2C6AB6E7A074B9A659EA7E65D8E8)
Полное имя : D:\Video\Увалень Томми.1995.BDRip.720p by msltel.mkv
Формат : Matroska
Версия формата : Version 4 / Version 2
Размер файла : 5,72 Гбайт
Продолжительность : 1 ч. 37 м.
Общий поток : 8433 Кбит/сек
Название фильма : Rip by msltel
Дата кодирования : UTC 2017-02-15 12:31:05
Программа кодирования : mkvmerge v8.2.0 ('World of Adventure') 64bit
Библиотека кодирования : libebml v1.3.1 + libmatroska v1.4.2

Видео
Идентификатор : 1
Формат : AVC
Формат/Информация : Advanced Video Codec
Профиль формата : High@L4.1
Параметр CABAC формата : Да
Параметр ReFrames формата : 9 кадров
Идентификатор кодека : V_MPEG4/ISO/AVC
Продолжительность : 1 ч. 37 м.
Битрейт : 6638 Кбит/сек
Ширина : 1280 пикселей
Высота : 720 пикселей
Соотношение сторон : 16:9
Режим частоты кадров : Постоянный
Частота кадров : 23,976 (24000/1001) кадра/сек
Цветовое пространство : YUV
Субдискретизация насыщенности : 4:2:0
Битовая глубина : 8 бит
Тип развёртки : Прогрессивная
Бит/(Пиксели*Кадры) : 0.300
Размер потока : 4,50 Гбайт (79%)
Библиотека кодирования : x264 core 146 r2538 121396c
Настройки программы : cabac=1 / ref=9 / deblock=1:-3:-3 / analyse=0x3:0x113 / me=umh / subme=11 / psy=1 / psy_rd=1.00:0.15 / mixed_ref=1 / me_range=32 / chroma_me=1 / trellis=2 / 8x8dct=1 / cqm=0 / deadzone=21,11 / fast_pskip=0 / chroma_qp_offset=-3 / threads=6 / lookahead_threads=1 / sliced_threads=0 / nr=0 / decimate=1 / interlaced=0 / bluray_compat=0 / constrained_intra=0 / bframes=8 / b_pyramid=2 / b_adapt=2 / b_bias=0 / direct=1 / weightb=1 / open_gop=0 / weightp=2 / keyint=230 / keyint_min=23 / scenecut=40 / intra_refresh=0 / rc_lookahead=40 / rc=crf / mbtree=0 / crf=18.3 / qcomp=0.60 / qpmin=0 / qpmax=69 / qpstep=4 / vbv_maxrate=62500 / vbv_bufsize=78125 / crf_max=0.0 / nal_hrd=none / filler=0 / ip_ratio=1.40 / pb_ratio=1.30 / aq=1:1.00
Язык : English
Default : Да
Forced : Нет

Аудио #1
Идентификатор : 2
Формат : AC-3
Формат/Информация : Audio Coding 3
Расширение режима : CM (complete main)
Параметр Endianness формата : Big
Идентификатор кодека : A_AC3
Продолжительность : 1 ч. 37 м.
Вид битрейта : Постоянный
Битрейт : 384 Кбит/сек
Каналы : 6 каналов
Расположение каналов : Front: L C R, Side: L R, LFE
Частота : 48,0 КГц
Частота кадров : 31,250 кадров/сек (1536 spf)
Битовая глубина : 16 бит
Метод сжатия : С потерями
Размер потока : 267 Мбайт (5%)
Заголовок : MVO (iTunes Russia)
Язык : Russian
Default : Да
Forced : Нет

Аудио #2
Идентификатор : 3
Формат : AC-3
Формат/Информация : Audio Coding 3
Расширение режима : CM (complete main)
Параметр Endianness формата : Big
Идентификатор кодека : A_AC3
Продолжительность : 1 ч. 37 м.
Вид битрейта : Постоянный
Битрейт : 192 Кбит/сек
Каналы : 2 канала
Расположение каналов : Front: L R
Частота : 44,1 КГц
Частота кадров : 28,711 кадров/сек (1536 spf)
Битовая глубина : 16 бит
Метод сжатия : С потерями
Размер потока : 133 Мбайт (2%)
Заголовок : MVO (Paramount channel)
Язык : Russian
Default : Нет
Forced : Нет

Аудио #3
Идентификатор : 4
Формат : AC-3
Формат/Информация : Audio Coding 3
Расширение режима : CM (complete main)
Параметр Endianness формата : Big
Идентификатор кодека : A_AC3
Продолжительность : 1 ч. 37 м.
Вид битрейта : Постоянный
Битрейт : 384 Кбит/сек
Каналы : 6 каналов
Расположение каналов : Front: L C R, Side: L R, LFE
Частота : 48,0 КГц
Частота кадров : 31,250 кадров/сек (1536 spf)
Битовая глубина : 16 бит
Метод сжатия : С потерями
Размер потока : 267 Мбайт (5%)
Заголовок : AVO (Юрий Живов)
Язык : Russian
Default : Нет
Forced : Нет

Аудио #4
Идентификатор : 5
Формат : AC-3
Формат/Информация : Audio Coding 3
Профиль формата : Dolby Digital
Расширение режима : CM (complete main)
Параметр Endianness формата : Big
Идентификатор кодека : A_AC3
Продолжительность : 1 ч. 37 м.
Вид битрейта : Постоянный
Битрейт : 192 Кбит/сек
Каналы : 2 канала
Расположение каналов : Front: L R
Частота : 48,0 КГц
Частота кадров : 31,250 кадров/сек (1536 spf)
Битовая глубина : 16 бит
Метод сжатия : С потерями
Размер потока : 133 Мбайт (2%)
Заголовок : AVO (Павел Санаев)
Язык : Russian
Default : Нет
Forced : Нет

Аудио #5
Идентификатор : 6
Формат : AC-3
Формат/Информация : Audio Coding 3
Расширение режима : CM (complete main)
Параметр Endianness формата : Big
Идентификатор кодека : A_AC3
Продолжительность : 1 ч. 37 м.
Вид битрейта : Постоянный
Битрейт : 640 Кбит/сек
Каналы : 6 каналов
Расположение каналов : Front: L C R, Side: L R, LFE
Частота : 48,0 КГц
Частота кадров : 31,250 кадров/сек (1536 spf)
Битовая глубина : 16 бит
Метод сжатия : С потерями
Размер потока : 444 Мбайт (8%)
Заголовок : original
Язык : English
Default : Нет
Forced : Нет
pb.wtf



Скачать Увалень Томми через торрент http://s018.radikal.ru/i506/1702/20/0d076ebe70b7.jpg Скачать фильм Увалень Томми через торрент бесплантно в хорошем качестве Описание: Томми с детства был толстяком и увальнем, вечно падающим, ударяющимся о двери и заборы, но не унывающим, добрым и отзывчивым. ... 7 10 1
Info! Золотая раздача, скачанное не засчитывается.
Торрент: Зарегистрирован [2017-02-16 07:39] · скачан: 81 раз
Статус: √ проверено
Размер: 5.72 GB
Как cкачать? Как скачать Увалень Томми через торрент | qTorrent

% Раздел Тема Автор DL S | L
Фильмы [HD 720p, 1080p] (Хороший звук DUB, MVO) [ 14.86 GB ] Увалень Томми / Tommy Boy [1995 BDRip 1080p by msltel] 2 x MVO 2 x AVO msltel Скачать
1 | 0


Последний раз редактировалось: msltel (2017-02-17 06:02), всего редактировалось 1 раз

28-11-2019 20:33  

Отключить всю рекламу на сайте

16-02-2017 08:59 Увалень Томми Скачать торрент  

чего-то не помню такого из 90-х. Как кино подскажите?pb.wtf



16-02-2017 10:17 Увалень Томми Скачать торрент  

chivaldory писал(а):

чего-то не помню такого из 90-х. Как кино подскажите?

Хороший фильм для своего времени, ещё был "Позор семьи" с этими ребятами, в детстве много раз смотрел.pb.wtf



18-02-2017 04:47 Увалень Томми Скачать торрент  

Хорошие фильмы были в 90 с Крисом Фарли только вот мало он снялся.pb.wtf



    Дорогой пользователь! Огромная просьба, поблагодарите релизера, оцените раздачу и оставьте свои комментарий, если Вы скачали Увалень Томми через торрент бесплатно! Внесите свою лепту в развитие PiratBit!
    Комментировать посты могут только пользователи прошедшие не сложную регистрацию
    Показать сообщения:    

    Увалень Томми через торрент
    Скачать бесплатно Увалень Томми
    Увалень Томми скачать торрент
    Увалень Томми смотреть онлайн
    Cкачать фильм Увалень Томми бесплатно
    Увалень Томми скачать торрент в хорошем качестве
    Увалень Томми смотреть онлайн бесплатно в хорошем качестве


    Вы не можете начинать темы
    Вы не можете отвечать на сообщения
    Вы не можете редактировать свои сообщения
    Вы не можете удалять свои сообщения
    Вы не можете голосовать в опросах
    Вы не можете прикреплять файлы к сообщениям
    Вы можете скачивать файлы