Ссылка на приватное зеркало нашего сайта всего за 1$. Внимание количество ограничено!!!

2 сезон

iTunes

1 сезон

1

2 сезон

2 сезон

iTunes

1 сезон

RePack

30

Ultimate

ВАЖНО

ИГРА 18+

pack

RePack

MK11
pack

Забери бонус

RePack

jed

!!Акция!!

Alien_Rage

RePack

fifa19

RePack

Assassins Creed: Odyssey

RePack

NEED FOR SPEED™ PAYBACK

4 сезон

9 сезон

Бесстыжие 9 сезон

Все сериалы

все сериалы на PB.wtf

RePack

FAR CRY 5
  

Побег / Breakout (Том Грайз) [1975, Боевик, драма, приключения, Blu-Ray Remux 1080p] Ger Transfer / Dub, MVO, AVO pb.wtf

Побег через торрент pb.wtf

Размер: 19.28 GB | Добавлен: 3 года 9 мес. назад | Торрент скачан:12 раз
Скачать  

16-02-2017 07:44 Побег Скачать торрент  

«Sentenced to 28 years in prison for a crime he never committed. Only two things can get him out - A lot of money and Charles Bronson!»

Информация о фильме
Название: Побег
Оригинальное название: Breakout
Год выхода: 1975
Жанр: Боевик, драма, приключения
Страна: США
Студия: Columbia Pictures Corporation
Продолжительность: 01:36:21
Перевод: Профессиональный (полное дублирование)[Советский дубляж + вставки с многоголосого] + Профессиональный (мнгоголосый, закадровый) + Авторский (одноголосый закадровый) [А.Гаврилов)]
Субтитры: Английские

Режиссер: Том Грайз

В ролях: Чарльз Бронсон, Роберт Дювалл, Джилл Айрленд, Рэнди Куэйд, Шири Норт, Хорхе Морено, Эмилио Фернандес, Пол Манти, Алан Винт, Алехандро Рей

О фильме:

Отчаянный летчик Ник Колтон берётся вытащить из мексиканской тюрьмы некоего Джея Вагнера за вознаграждение в 250 тысяч долларов. Операция по спасению заключенного представляется практически невыполнимой даже для хорошо подготовленных и вооруженных спецгрупп. Уникальность задания заключается в том, что выполнить его под силу лишь одиночке. Но лучшему из лучших.

rating

Качество: Blu-Ray Remux 1080p
Формат: MKV
Кодек: MPEG-4 AVC
Видео: 1920x1080 (16:9), 23.976 fps, MPEG-4 AVC ~27.1 Mbps avg, 0.544 bit/pixel
Аудио: 48 kHz, AC3, 2 ch, ~192.00 kbps avg | русский | Профессиональный (полное дублирование)[Советский дубляж]
Аудио: 48 kHz, AC3, 2 ch, ~192.00 kbps avg | русский | Профессиональный (мнгоголосый, закадровый)
Аудио: 48 kHz, AC3, 2 ch, ~192.00 kbps avg | русский | Авторский (одноголосый закадровый) [А.Гаврилов)]
Аудио: 48 kHz, DTS, 2 ch, ~768.00 kbps avg | английский | Оригинал



Семпл
Общее

Уникальный идентификатор : 180300452269520909560158765718681503432 (0x87A49A9FD3523C1CBF3F5869F16546C8)

Полное имя : Breakout (1975) BD-Remux Ger Transfer 1080p AVC DD 2.0.mkv

Формат : Matroska

Версия формата : Version 4 / Version 2

Размер файла : 19,3 Гбайт

Продолжительность : 1 ч. 36 м.

Режим общего битрейта : Переменный

Общий поток : 28,7 Мбит/сек

Дата кодирования : UTC 2017-02-16 06:32:54

Программа кодирования : mkvmerge v9.7.1 ('Pandemonium') 64bit

Библиотека кодирования : libebml v1.3.4 + libmatroska v1.4.5

DURATION : 01:34:43.220000000

NUMBER_OF_FRAMES : 1455

NUMBER_OF_BYTES : 2793064

_STATISTICS_WRITING_APP : mkvmerge v9.7.1 ('Pandemonium') 64bit

_STATISTICS_WRITING_DATE_UTC : 2017-02-16 06:32:54

_STATISTICS_TAGS : BPS DURATION NUMBER_OF_FRAMES NUMBER_OF_BYTES

Видео

Идентификатор : 1

Формат : AVC

Формат/Информация : Advanced Video Codec

Профиль формата : High@L4.1

Параметр CABAC формата : Да

Параметр ReFrames формата : 4 кадра

Идентификатор кодека : V_MPEG4/ISO/AVC

Продолжительность : 1 ч. 36 м.

Вид битрейта : Переменный

Максимальный битрейт : 35,0 Мбит/сек

Ширина : 1920 пикселей

Высота : 1080 пикселей

Соотношение сторон : 16:9

Режим частоты кадров : Постоянный

Частота кадров : 23,976 кадра/сек

Стандарт вещания : NTSC

Цветовое пространство : YUV

Субдискретизация насыщенности : 4:2:0

Битовая глубина : 8 бит

Тип развёртки : Прогрессивная

Default : Да

Forced : Нет

Цветовой диапазон : Limited

Основные цвета : BT.709

Характеристики трансфера : BT.709

Коэффициенты матрицы : BT.709

Аудио #1

Идентификатор : 2

Формат : AC-3

Формат/Информация : Audio Coding 3

Расширение режима : CM (complete main)

Параметр Endianness формата : Big

Идентификатор кодека : A_AC3

Продолжительность : 1 ч. 36 м.

Вид битрейта : Постоянный

Битрейт : 192 Кбит/сек

Каналы : 2 канала

Расположение каналов : Front: L R

Частота : 48,0 КГц

Метод сжатия : С потерями

Размер потока : 132 Мбайт (1%)

Заголовок : DUB

Язык : Russian

Default : Да

Forced : Нет

Аудио #2

Идентификатор : 3

Формат : AC-3

Формат/Информация : Audio Coding 3

Расширение режима : CM (complete main)

Параметр Endianness формата : Big

Идентификатор кодека : A_AC3

Продолжительность : 1 ч. 36 м.

Вид битрейта : Постоянный

Битрейт : 192 Кбит/сек

Каналы : 2 канала

Расположение каналов : Front: L R

Частота : 48,0 КГц

Метод сжатия : С потерями

Размер потока : 132 Мбайт (1%)

Заголовок : MVO

Язык : Russian

Default : Нет

Forced : Нет

Аудио #3

Идентификатор : 4

Формат : AC-3

Формат/Информация : Audio Coding 3

Расширение режима : CM (complete main)

Параметр Endianness формата : Big

Идентификатор кодека : A_AC3

Продолжительность : 1 ч. 36 м.

Вид битрейта : Постоянный

Битрейт : 192 Кбит/сек

Каналы : 2 канала

Расположение каналов : Front: L R

Частота : 48,0 КГц

Метод сжатия : С потерями

Размер потока : 132 Мбайт (1%)

Заголовок : Gavrilov

Язык : Russian

Default : Нет

Forced : Нет

Аудио #4

Идентификатор : 5

Формат : DTS

Формат/Информация : Digital Theater Systems

Профиль формата : MA / Core

Режим : 16

Параметр Endianness формата : Big

Идентификатор кодека : A_DTS

Продолжительность : 1 ч. 36 м.

Вид битрейта : Переменный

Битрейт : Неизвестно / 768 Кбит/сек

Каналы : 2 канала

Расположение каналов : Front: L R

Частота : 48,0 КГц

Битовая глубина : 16 бит

Метод сжатия : Без потерь / Lossy

Язык : English

Default : Нет

Forced : Нет

Текст

Идентификатор : 6

Формат : PGS

Режим смешивания : zlib

Идентификатор кодека : S_HDMV/PGS

Идентификатор кодека/Информация : Picture based subtitle format used on BDs/HD-DVDs

Язык : English

Default : Да

Forced : Нет
pb.wtf



Скачать Побег через торрент http://s018.radikal.ru/i509/1702/26/a73fa3a32d45.jpg Скачать фильм Побег через торрент бесплантно в хорошем качестве О фильме:Отчаянный летчик Ник Колтон берётся вытащить из мексиканской тюрьмы некоего Джея Вагнера за вознаграждение в 250 тысяч долларов. ... 10 10 1
Info! Серебряная раздача, засчитывается только 50% скачанного.
Торрент: Зарегистрирован [2017-02-16 07:44] · скачан: 12 раз
Статус: √ проверено
Размер: 19.28 GB
Как cкачать? Как скачать Побег через торрент | qTorrent

28-11-2019 20:33  

Отключить всю рекламу на сайте

    Дорогой пользователь! Огромная просьба, поблагодарите релизера, оцените раздачу и оставьте свои комментарий, если Вы скачали Побег через торрент бесплатно! Внесите свою лепту в развитие PiratBit!
    Комментировать посты могут только пользователи прошедшие не сложную регистрацию
    Показать сообщения:    

    Побег через торрент
    Скачать бесплатно Побег
    Побег скачать торрент
    Побег смотреть онлайн
    Cкачать фильм Побег бесплатно
    Побег скачать торрент в хорошем качестве
    Побег смотреть онлайн бесплатно в хорошем качестве


    Вы не можете начинать темы
    Вы не можете отвечать на сообщения
    Вы не можете редактировать свои сообщения
    Вы не можете удалять свои сообщения
    Вы не можете голосовать в опросах
    Вы не можете прикреплять файлы к сообщениям
    Вы можете скачивать файлы