Ссылка на приватное зеркало нашего сайта всего за 1$. Внимание количество ограничено!!!

2 сезон

iTunes

1 сезон

1

iTunes

iTunes

iTunes

1 сезон

RePack

30

ИГРА 18+

pack

ВАЖНО

!!Акция!!

Alien_RageХит недели

RePack

MK11
pack

Забери бонус

RePack

jed

!!Акция!!

Alien_Rage

RePack

fifa19

RePack

Assassins Creed: Odyssey

RePack

NEED FOR SPEED™ PAYBACK

4 сезон

9 сезон

Бесстыжие 9 сезон

Все сериалы

все сериалы на PB.wtf

RePack

FAR CRY 5
  

Чёрная паутина ( Участок лейтенанта Качуры ) / Серии: 1-4 из 4 (Игорь Четвериков) [2015, детектив, SATRip-AVC] pb.wtf

Чёрная паутина через торрент pb.wtf

Размер: 2.53 GB | Добавлен: 3 года 8 мес. назад | Торрент скачан:163 раза
Скачать  

16-02-2017 08:56 Чёрная паутина Скачать торрент  

Чёрная паутина"Участок лейтенанта Качуры"


Год выпуска: 2015
Производство: Беларусь, Киностудия "Беларусьфильм"
Жанр: детектив
Продолжительность: 00:52:00
Субтитры: нет



Режиссёр: Игорь Четвериков




В ролях:Павел Харланчук, Валентина Гарцуева, Константин Михаленко, Александр Жданович, Сергей Власов, Сергей Чекерес, Андрей Сенькин, Андрей Карако, Татьяна Чердынцева, Александр Овчинников

Описание: Очередное дело старшего лейтенанта Качуры начинается с обнаружения на железной дороге трупа неизвестного мужчины. В сумке убитого эксперты обнаруживают остатки неизвестного синтетического наркотика, используемого для кустарного приготовления «спайсов», распространение которых уже вышло за границы района и области. Расследованием преступления занимается начальник следственного отдела майор Терешко и его подчинённые, в числе которых – Карина Бартош, новый молодой следователь из Минска, и, конечно же, участковый Андрей Качура. Параллельно с расследованием инцидента на железной дороге, Бартош и Качура занимаются поиском старшеклассницы Вики Красовской, пропавшей при невыясненных обстоятельствах... Дело принимает трагический оборот, когда в маленьком тихом Заречье от передозировки злосчастным наркотическим веществом гибнут двое подростков. Майор Терешко и его подчинённые бросают все силы на поиски распространителей смертоносного зелья, но найти злоумышленников непросто – изощрённым преступником, создавшим свою паутину наркобизнеса, оказывается человек, которого сложно в чём-либо заподозрить. Человек, скрывающийся под маской...









Релиз от:




Качество: SATRip
Формат: MKV
Видео кодек: H.264
Аудио кодек: AC3
Видео: MPEG4 Video (H264), 720x400, 25fps,1500 Kbps,bit/pixel 0.208
Аудио: AC3 48000Hz, stereo, 256 kbps,2 ch



Общее
Уникальный идентификатор : 172263470275998629983606380392852187567 (0x8198BCD19332D274B01CA8AB48D369AF)
Полное имя : D:\Чёрная паутина\01 серия_Чёрная паутина_rip by_Aleksan55.mkv
Формат : Matroska
Версия формата : Version 2
Размер файла : 654 Мбайт
Продолжительность : 52 м. 2 с.
Общий поток : 1758 Кбит/сек
Дата кодирования : UTC 2017-02-15 22:08:51
Программа кодирования : mkvmerge v7.8.0 ('River Man') 32bit built on Apr 3 2015 12:11:22
Библиотека кодирования : libebml v1.3.1 + libmatroska v1.4.2

Видео
Идентификатор : 1
Формат : AVC
Формат/Информация : Advanced Video Codec
Профиль формата : High@L4.1
Параметр CABAC формата : Да
Параметр ReFrames формата : 14 кадров
Идентификатор кодека : V_MPEG4/ISO/AVC
Продолжительность : 52 м. 2 с.
Битрейт : 1500 Кбит/сек
Ширина : 720 пикселей
Высота : 400 пикселей
Соотношение сторон : 16:9
Режим частоты кадров : Постоянный
Частота кадров : 25,000 кадров/сек
Цветовое пространство : YUV
Субдискретизация насыщенности : 4:2:0
Битовая глубина : 8 бит
Тип развёртки : Прогрессивная
Бит/(Пиксели*Кадры) : 0.208
Размер потока : 546 Мбайт (83%)
Библиотека кодирования : x264 core 148 r2638 7599210
Настройки программы : cabac=1 / ref=14 / deblock=1:-2:-2 / analyse=0x3:0x133 / me=umh / subme=9 / psy=1 / psy_rd=1.00:0.15 / mixed_ref=0 / me_range=32 / chroma_me=1 / trellis=2 / 8x8dct=1 / cqm=0 / deadzone=21,11 / fast_pskip=0 / chroma_qp_offset=-3 / threads=3 / lookahead_threads=3 / sliced_threads=0 / nr=0 / decimate=0 / interlaced=0 / bluray_compat=0 / constrained_intra=0 / bframes=14 / b_pyramid=2 / b_adapt=1 / b_bias=0 / direct=3 / weightb=1 / open_gop=0 / weightp=2 / keyint=250 / keyint_min=25 / scenecut=40 / intra_refresh=0 / rc_lookahead=40 / rc=2pass / mbtree=1 / bitrate=1500 / ratetol=1.0 / qcomp=0.80 / qpmin=0 / qpmax=39 / qpstep=4 / cplxblur=20.0 / qblur=0.5 / ip_ratio=1.10 / aq=1:1.20
Default : Да
Forced : Нет
Цветовой диапазон : Limited
Основные цвета : BT.601 PAL
Характеристики трансфера : BT.470 System B, BT.470 System G
Коэффициенты матрицы : BT.601

Аудио
Идентификатор : 2
Формат : AC-3
Формат/Информация : Audio Coding 3
Расширение режима : CM (complete main)
Параметр Endianness формата : Big
Идентификатор кодека : A_AC3
Продолжительность : 52 м. 2 с.
Вид битрейта : Постоянный
Битрейт : 256 Кбит/сек
Каналы : 2 канала
Расположение каналов : Front: L R
Частота : 48,0 КГц
Частота кадров : 31,250 кадров/сек (1536 spf)
Битовая глубина : 16 бит
Метод сжатия : С потерями
Размер потока : 95,3 Мбайт (15%)
Default : Да
Forced : Нет
Внимание! Раздача ведётся путём добавления новых серий; при каждом добавлении создаётся новый торрент.
Чтобы начать докачку новой серии, пользователям необходимо сделать следующее:
1. Остановить скачивание;
2. Удалить старый торрент у себя из клиента (старые серии удалять не надо);
3. Скачать новый торрент и запустить его у себя в клиенте вместо старого, при этом указать клиенту путь в старую папку куда и должно происходить скачивание новых серий. Ваш клиент при этом должен произвести хеширование (проверку) старой папки и будет докачивать только те серии, которых у вас ещё нет. Старые серии при этом не удаляются, а продолжают раздаваться! Eсли вы уже удалили старые серии, то предотвратить повторную закачку старых серий можно, отжав галочку в соответствующих местах при запуске нового торрента.


Добавлены 3-4 серия.pb.wtf



Скачать Чёрная паутина через торрент http://img11.lostpic.net/2017/02/15/d3e68ecd0d5e4b9f5af2ec488c79475d.png Скачать фильм Чёрная паутина через торрент бесплантно в хорошем качестве Описание: Очередное дело старшего лейтенанта Качуры начинается с обнаружения на железной дороге трупа неизвестного мужчины. В сумке убитого ... 8.7 10 7
Торрент: Зарегистрирован [2017-02-16 21:58] · скачан: 163 раз
Статус: √ проверено
Размер: 2.53 GB
Как cкачать? Как скачать Чёрная паутина через торрент | qTorrent

28-11-2019 20:33  

Отключить всю рекламу на сайте

17-02-2017 18:00 Чёрная паутина Скачать торрент  

Очень даже приличный сериальчик,раздающему спасибо.pb.wtf



    Дорогой пользователь! Огромная просьба, поблагодарите релизера, оцените раздачу и оставьте свои комментарий, если Вы скачали Чёрная паутина через торрент бесплатно! Внесите свою лепту в развитие PiratBit!
    Комментировать посты могут только пользователи прошедшие не сложную регистрацию
    Показать сообщения:    

    Чёрная паутина через торрент
    Скачать бесплатно Чёрная паутина
    Чёрная паутина скачать торрент
    Чёрная паутина смотреть онлайн
    Cкачать фильм Чёрная паутина бесплатно
    Чёрная паутина скачать торрент в хорошем качестве
    Чёрная паутина смотреть онлайн бесплатно в хорошем качестве


    Вы не можете начинать темы
    Вы не можете отвечать на сообщения
    Вы не можете редактировать свои сообщения
    Вы не можете удалять свои сообщения
    Вы не можете голосовать в опросах
    Вы не можете прикреплять файлы к сообщениям
    Вы можете скачивать файлы